&title=Wahrheit
&artist=妖精帝國
&first=0
&des=おにねこ
&lv_5=13
&inote_5=(140)
{1},,
{4},,,,,
5>5[8:14],,,,,,,,
4<4[8:14],,,,,,,,
6<6[8:14],,,,,,,,
1<1[8:12],,,,,,,,
{8}
5,6,4<7[16:3],3,,,1h[8:2],,7h[8:2],,8-4[16:3],8,,,6h[8:2],,
3h[8:2],,4-8[16:3],,5q3[16:5],,,,1,,8-4[16:3],,7p1[16:5],,,,
4,3,5p1[16:3],6,5p7[16:4],,,,3h[8:2],,1p5[16:3],2,1p3[16:4],,,,
6,,7V52[16:4],,3V58[16:4],,,,
{16}7h[16:3],,,8h[16:3],,,1h[16:3],,,2,,,
{8}7pp5[8:14]/3q4[8:12],,,,,,,,,,,,,,,,,,,
(180)
{64},,
{32}1p5[8:1],2,3,4,5,6,7,8,
{4}1bq5[8:1],1b<5[8:1],1b>5[8:1],1b,
{8}6,7,81,2,3<6[8:1]/4,,7h[8:2],,5>2[8:1],,7,7,1>4[8:1],,4,,
6,7,81,2,3/4<7[8:1],,1h[8:2],,8-5[8:1],,2,2,1-4[8:1],,4b,,
{8}7,6,54,3,2<7[8:1]/1,,6h[8:2],,8>3[8:1],,6,6,4>1[8:1],,1,,
7,6,54,3,2>5[8:1]/1<6[8:1],,,,4/7h[8:2],,1,2,3-6[8:1]/8-5[8:1],,8b/3b,,
{8}
4-1[8:1],,5,6h[8:2],,4,3h[8:2],,4-1[8:1],,5,6h[8:2],,4,3h[8:2],,
7h[8:1],2h[8:1],4,2h[8:1],7h[8:1],5,6,,1h[8:1],7h[8:1],5,7h[8:1],1h[8:1],4,3,,
4/6,,4,3/4,,5,65,,18,,6,75,,3,42,,
65,75,8,1,4,3,25,,3q5[16:5],4,5,6,,,{16}7,2,8,1,
{8}2b/7b-2[8:1],,7-3[8:1]/4,,3/7-4[8:1],,
17,1,2>5[8:1],5,2,7,8<5[16:2],5,8p3[32:6],3,8/3<8[32:6],,,,
1,,2-5[8:1],1,8,,7qq4[8:3],8,1-4[8:1],,,,
{8}2-7[8:1],,2-6[8:1]/5,,6/2-5[8:1],,
82,8,7-4[8:1],4,7,2,1-4[16:2],4,1-6[32:4],6,1-3[32:3],,14,,65,,
7<4[8:1],5,7,,2>5[8:1],4,{16}2,,8,,6,5,6,5,
{8}
6-3[8:1],,3-6[8:1],,2-7[8:1],,7-2[8:1],,5,6,7,8,2,1,8,7,
6-1[8:1],,1-6[8:1],,2-5[8:1],,5-2[8:1],,8,7,6,5,3,4,5,6,
3<6[8:1],,6>3[8:1],,7>2[8:1],,2<7[8:1],,4,3,25,16,7,8,61,52,
3>8[8:1],,8>3[8:1],,7<4[8:1],,4<7[8:1],,1,2,38,47,6,5,74,83,
2b,4<8[32:5],3,2b,,,2b,4<8[32:5],3,2b,,1h[8:1],{16}4,2,4,2,5,4,5,4,
{8}
7b,5>1[32:5],6,7b,,,7b,5>1[32:5],6,7b,,8h[8:1],{16}5,6,5,,
{8}
1q5[8:1]/8p4[8:1],,1bV37[32:8]/8bV62[32:8],,,,
,,3V14[32:8]/4,,3/4<6[32:4],,7,7>3[32:5],,5,5-2[8:1]*-8[8:1],,5,,1,3v8[32:4]/7,,83,6<2[32:5],,
61,,3pp6[32:12],4,35,,7,,8qq8[8:2],,3/8>8[8:2],3,,,1b,,8/1pp1[8:2],,5/1<1[8:2],5,,,
8b<5[8:1],,8/1bp4[8:1],,8bq5[8:1]/1,,1b>4[8:1]/8,,1/8b,,75,6,74,8,25,3,
{16}2qq3[16:5],4,2,4,2,,,,
{8}5,6h[8:2],,2,5/1p5[8:1],,1/5p1[16:2],,8,7h[8:2],,3,2q6[8:1]/4-6[8:1],,24,,
7,8,61,2,3-8[8:1]/8-5[8:1],,38,,4,3,4/6h[8:2],,1-4[8:1],,6/1-6[32:4],,5,5-8[8:1],,4,
4-1[8:1],,4/8-3[32:4],,5,5-2[8:1],,1,
{4}1-4[8:1],7-3[32:4]/1,2-6[8:1]/7,2/8-5[8:1],3-6[32:4]/8,3/7-4[8:1],1-5[8:1]/7,8-4[32:4]/1,
3/8<1[8:13],,,,,,,8-5[16:2],,
{8}
2h[8:1],4h[8:1],5h[8:1],7h[8:1],3h[8:1],4h[8:1],5h[8:1],6h[8:1],
3>8[8:1],4,5,6,7,6/5b,2,3/4b,
7h[8:1],5h[8:1],3h[8:1],1h[8:1],7h[8:1],5h[8:1],3h[8:1],1h[8:1],
6<1[8:1],5,4,3,2b>5[8:1],5,6,7,
8h[8:1],4h[8:1],5h[8:1],3h[8:1],1h[8:1],2h[8:1],5h[8:1],3h[8:1],
7h[8:1],4h[8:1],5h[8:1],3h[8:1],1h[8:1],2h[8:1],5h[8:1],3h[8:1],
6b,4h[8:1],7h[8:1],5h[8:1],6b,8,7/3,1,5/3b,8,6b/4,1,3b/4,7,
{16}48,37,26,15,
{12}8b>4[32:7]/4b,,5b,,6b,,7b<3[32:7],,8b,,1b,,
2b<6[32:7],,3b,,4b,,{4}5bs1[63#32:8]*s1[63#32:8],,,,,,
(60)
{12}
5-7[12:1],7-4[12:1],4-8[12:1],,,,2-8[12:1],8-3[12:1],3-7[12:1],,,,
6-1[12:1],1-5[12:1],5-2[12:1],,,,1<6[12:1],1p5[12:1],1v4[12:1],,,,
3>8[12:1],8<5[12:1],5q3[36:4],,,,7<4[12:1],4>1[12:1],1q7[36:4],,,,
2>5[12:1],5q4[12:1],4<7[12:1],,,,8>3[96:12],2>5[96:12],4<6[16:1],7w3[16:1],,,,
(180)
{8},,
1bqq7[32:6]/8bpp2[32:6],,1>4[8:1]/8<5[8:1],,,,
3-8[8:1]/6,,7qq4[32:11]/3,,
71,,2,2>6[32:5],,1,1<6[8:1]*p5[8:1],,1>4[8:1],,1,7<4[32:4],,74,3qq8[32:12],,
38,,7p4[32:12],6,7,,1,,
5h[8:2],,3v1[8:1],4q8[8:1],3,4,2b,,4h[8:2]/8,,6v1[8:1],5>2[32:4],6,5,8b<6[8:1],,
1b>3[8:1],2,8bp4[8:1],7,1bq5[8:1],2,8b<6[8:1],,3,2,15,2,74,8,
{16}7>2[8:1],5,6,5,7,,,,
{8}34,18,5-2[8:1]/6,7,8V61[8:2],,8,,4,3,25,6,7-4[8:1]/5-1[8:1],,75,,
3,5,61,2,3-8[8:1]/1-5[8:1],,1>4[8:1],,6,7,8-4[8:1],,3>8[8:1]/8<5[8:1],,3/8pp3[32:11],,4,5,6,7,
5>2[8:1]/8<5[8:1],,8/5pp1[32:11],,1,2,3,4,
{4}5/8-4[8:1],2-6[32:4]/8,7-3[8:1]/2,7/1-5[8:1],6-3[32:4]/1,
{8}6/2-5[8:1],1,6-3[8:1],7,2-5[8:1],1,
8-6[8:1],,1h[8:14]/8b-5[8:1],,8b-3[8:1],,8b-4[8:1],,
8b-6[8:1],,8b-5[8:1],,8b-3[8:1],,8b-4[8:1],,8b,,
{8}56,7,81,2,3-6[8:1]/4,,7-4[8:1],,2-5[8:1],,6-1[8:1],6,1p4[8:1],,4,,
3,2,18,7,6/5-1[8:1],,8-4[8:1],,3,,1-4[8:1],1,8-5[8:1],,5b,,
{8}21,3,45,6,7-2[8:1]/8,,3-8[8:1],,6-1[8:1],,2-5[8:1],2,5p8[8:1],,8,,
7,6,54,3,2-6[8:1]/1-5[8:1],,21,,4/7h[8:2],,8,7,6/1>5[32:5],,{16}5,6,7,8,
{8}1b,3s7[8:2],5,3b/7b,,,8b,6z2[8:2],4,6b/2b,,,4<4[4:43]/8>8[4:43],,
