&title=まほろば少年譚
&artist=ユウリ·カノン
&first=0.012
&des=Tane
&freemsg=ユウリ·カノン
&wholebpm=
&des_1=Tane
&des_2=Tane
&des_3=Tane
&des_4=Tane
&des_5=Tane
&lv_1=2
&lv_2=3
&lv_3=5
&lv_4=9
&lv_5=13
&inote_1=(150){1},
{16},,,,
,,,,
{1}2-5[2:1],
{1}6-1[2:1],
{1}1-4[2:1],
{1}5-8[2:1],
{1}7-4[2:1],
{1}3-8[2:1],
{1}8-5[2:1],
{1}4-1[2:1],
{8}4,,,,
,,,,
{8}2,,,,
,,,,
{4}2,,,,
{4}6q4[2:1],,,,
{4}4,,,,
{8}7q5[2:1],,,,
,,,,
{4},7,,,
{4}4p5[2:1],,,,
{4}5,,,,
{1}8-5[2:1],
{1}2h[2:1],
{1}2h[2:1],
{1}2h[2:1],
{1}2h[2:1],
{1}6h[2:1],
{8}6^3[2:1],,,,
,,,,
{4}1,,,,
{1}1^4[2:1],
{2}45,,
{1}8^5[2:1],
{2}45,,
{1}5p8[2:1],
{8}4h[8:6],,,,
,,,,
{8}5h[8:6],,,,
,,,,
{4}18,,,,
{1}4pp1[1:1]/5qq8[1:1],,
{8}3,,,,
1,,,,
{8}8,,,,
6,,,,
{4}24,,,,
{4}4b,,4b,,
{8}6,,,,
8,,,,
{8}1,,,,
3,,,,
{4}75,,,,
{1}4^1[2:1]/5^8[2:1],
{8}2,,,,
4,,,,
{8}5,,,,
7,,,,
{4}31,,,,
{4}1b,,1b,,
{8}7,,,,
5,,,,
{8}4,,,,
2,,,,
{4}68,,,,
{1}1^4[2:1]/8^5[2:1],
{8}1,,,,
1,,,,
{8}1,,,,
4,,,,
{8}4,,,,
4,,,,
{8}4,,,,
1,,,,
{8}1,,,,
2,,,,
{8}2,,,,
4,,,,
{8}2>7[8:1],,,,
,,,,
{1}1h[8:3]/8h[8:3],
{1}7-4[2:1],
{1}3-8[2:1],
{1}8-5[2:1],
{1}4-1[2:1],
{1}2-5[2:1],
{1}6-1[2:1],
{1}1-4[2:1],
{1}5-8[2:1],
{8}5,,,,
6,,,,
{8}7,,,,
81,,,,
{1},,,,,,,,
&inote_2=(150){1},
{16},,,,
,,,,
{1}2-5[2:1],
{1}6-1[2:1],
{1}1-4[2:1],
{1}5-8[2:1],
{1}7-4[2:1],
{1}3-8[2:1],
{1}8-5[2:1],
{1}4-1[2:1],
{8}4,,,,
3,,,,
{8}2,,,,
18,,,,
{4}2,,,,
{4}6q4[2:1],,,,
{4}4,,,,
{8}4,,,,
2p4[4:1]/7q5[4:1],,,,
{4},7,,,
{4}4p5[2:1],,,,
{4}5,,,,
{1}1-4[2:1]/8-5[2:1],
{8}2h[4:1],,,,
2h[4:1],,,,
{8}2h[4:1],,,,
2h[4:1],,,,
{8}2h[4:1],,,,
7h[4:1],,,,
{8}2h[2:1],,,,
6h[4:1],,,,
{8}6h[4:1],,,,
7h[4:1],,,,
{8}6^3[2:1],,,,
,,,,
{4}1,,,,
{1}1^4[2:1]/8^5[2:1],
{2}45,,
{1}1p4[2:1]/8^5[2:1],
{2}45,,
{1}4^1[2:1]/5p8[2:1],
{8}4h[8:6],,,,
,,,,
{8}5h[8:6],,,,
,,,,
{4}18,,,,
{1}4pp1[1:1]/5qq8[1:1],,
{8}3,,,,
1,,,,
{8}8,,,,
6,,,,
{4}24,,,,
{4}4b,,4b,,
{8}6,,,,
8,,,,
{8}1,,,,
3,,,,
{4}75,,,,
{1}4^1[2:1]/5^8[2:1],
{8}2,,,,
4,,,,
{8}5,,,,
7,,,,
{4}31,,,,
{4}1b,,1b,,
{8}7,,,,
5,,,,
{8}4,,,,
2,,,,
{4}68,,,,
{1}1^4[2:1]/8^5[2:1],
{8}18,,,,
12,,,,
{8}13,,,,
45,,,,
{8}45,,,,
43,,,,
{8}42,,,,
18,,,,
{8}17,,,,
26,,,,
{8}62,,,,
45,,,,
{8}2>7[8:1],,,,
,,,,
{1}1h[8:3]/8h[8:3],
{1}7-4[2:1],
{1}3-8[2:1],
{1}8-5[2:1],
{1}4-1[2:1],
{1}2-5[2:1],
{1}6-1[2:1],
{1}1-4[2:1],
{1}5-8[2:1],
{8}5,,,,
6,,,,
{8}7,,,,
81,,,,
{1},,,,,,,,
&inote_3=(150){1},
{16},,,,
,,,,
{1}2-5[2:1],
{1}6-1[2:1],
{1}1-4[2:1],
{1}5-8[2:1],
{1}7-4[2:1],
{1}3-8[2:1],
{1}8-5[2:1],
{1}4-1[2:1],
{8}4,,5,,
3,,6,,
{8}2,,7,,
18,,,,
{4}2,,4,,
{4}6q4[2:1],,,,
{4}4,,5,,
{8}4,,5,,
2p4[4:1]/7q5[4:1],,,,
{4},7,,,
{4}4p5[2:1],,,,
{4}5,,4,,
{1}1-4[2:1]/8-5[2:1],
{8}2h[4:1],,4,,
2h[4:1],,5,,
{8}2h[4:1],,6,,
2h[4:1],,7,,
{8}2h[4:1],,,,
7h[4:1],,,,
{8}2h[2:1],,,,
6h[4:1],,,,
{8}6h[4:1],,,,
7h[4:1],,,,
{8}6^3[2:1],,,,
,,,,
{4}1,,8,,
{1}1^4[2:1]/8^5[2:1],
{2}45,45,
{1}1p4[2:1]/8^5[2:1],
{2}45,45,
{1}4^1[2:1]/5p8[2:1],
{8}3/4h[8:6],,,,
,,,,
{8}6/5h[8:6],,,,
,,,,
{4}18,,36,,
{1}4pp1[1:1]/5qq8[1:1],,
{8}3,,7,,
1,,,,
{8}8,,2,,
6,,,,
{4}24,,57,,
{4}4b,4b,4b,,
{8}6,,2,,
8,,,,
{8}1,,7,,
3,,,,
{4}75,,42,,
{1}4^1[2:1]/5^8[2:1],
{8}2,,6,,
4,,,,
{8}5,,3,,
7,,,,
{4}31,,86,,
{4}1b,1b,1b,,
{8}7,,3,,
5,,,,
{8}4,,6,,
2,,,,
{4}68,,13,,
{1}1^4[2:1]/8^5[2:1],
{8}18,,18,,
12,,78,,
{8}13,,68,,
45,,,,
{8}45,,45,,
43,,65,,
{8}42,,75,,
18,,36,,
{8}17,,38,,
26,,37,,
{8}62,,37,,
45,,,,
{8}2>7[8:1],,,,
,,,,
{1}1h[8:3]/8h[8:3],
{1}7-4[2:1],
{1}3-8[2:1],
{1}8-5[2:1],
{1}4-1[2:1],
{1}2-5[2:1],
{1}6-1[2:1],
{1}1-4[2:1],
{1}5-8[2:1],
{8}5,,4,,
6,,3,,
{8}7,,2,,
81,,,,
{1},,,,,,,,
&inote_4=(150){1},
{16},,,,
,,,,
{4}2-5[8:1],1-6[8:1],4>7[4:1],,
{4}6-1[8:1],5-2[8:1],7<2[4:1],,
{4}1-4[8:1],8-5[8:1],3>6[4:1],,
{8}5-8[8:1],,4w8[8:1],,
,,,,
{4}7-4[8:1],8-3[8:1],5<2[4:1],,
{4}3-8[8:1],4-7[8:1],2>7[4:1],,
{4}8-5[8:1],1-4[8:1],6<3[4:1],,
{8}4-1[8:1],,5w1[8:1],,
,,,,
{8}4,4,5,5,
3,3,6,6,
{8}2,2,7,7,
18,,,,
{4}2,3,4,5,
{4}6q4[2:1],,,,
{4}4,23,5,67,
{8}4,3,5,6,
2p4[4:1]/7q5[4:1],,,,
{4},7,6,5,
{4}4p5[2:1],,,,
{4}5,68,4,13,
{1}1-4[2:1]/8-5[2:1],
{8}2h[4:1],4,4,,
2h[4:1],5,5,,
{8}2h[4:1],6,6,,
2h[4:1],7,7,,
{8}2h[4:1],1,8,,
7h[4:1],8,1,,
{8}2h[2:1],1,8,7,
6h[4:1],,5,5,
{8},6h[4:1],5,5,
7h[4:1],,5,4,
{8}3h[4:1],4,6^3[8:1],,
,,,,
{4}1,12,8,78,
{1}1^4[2:1]/8^5[2:1],
{8}5-2[8:1]/4-2[8:1],,,,
4-7[8:1]/5-7[8:1],,,,
{1}1p4[2:1]/8^5[2:1],
{8}5-2[8:1]/4-2[8:1],,,,
4-7[8:1]/5-7[8:1],,,,
{1}4^1[2:1]/5p8[2:1],
{8}3/4h[8:6],,,,
2,,,,
{8}6/5h[8:6],,,,
7,,,,
{4}18,27,36,45,
{1}4pp1[1:1]/5qq8[1:1],,
{8}3-5[8:1],,7-4[8:1],,
1-5[8:1],,,,
{8}8-4[8:1],,2-5[8:1],,
6-4[8:1],,,,
{4}24,3,57,6,
{4}4b,3b,2b,,
{8}6^4[8:1],,2-5[8:1],,
8-4[8:1],,,,
{8}1-5[8:1],,7-4[8:1],,
3^5[8:1],,,,
{4}75,6,42,3,
{1}4^1[2:1]/5^8[2:1],
{8}2-8[8:1],,6-1[8:1],,
4-8[8:1],,,,
{8}5-1[8:1],,3-8[8:1],,
7-1[8:1],,,,
{4}31,2,86,7,
{4}1b,2b,3b,,
{8}7^1[8:1],,3-8[8:1],,
5-1[8:1],,,,
{8}4-8[8:1],,6-1[8:1],,
2^8[8:1],,,,
{4}68,7,13,2,
{1}1^4[2:1]/8^5[2:1],
{8}18,2,18,7,
12,3,78,6,
{8}13,4,68,5,
45,,,,
{8}45,3,45,6,
43,2,65,7,
{8}42,1,75,8,
18,27,36,,
{8}17,3,38,6,
26,4,37,5,
{8}62,4,37,5,
45,45,,,
{8}2^5[8:1]/8,,,,
7^4[8:1]/1,,,,
{1}1h[8:3]/8h[8:3],
{4}3-8[8:1],4-7[8:1],1>6[4:1],,
{4}7-4[8:1],8-3[8:1],6<3[4:1],,
{4}4-1[8:1],5-8[8:1],2>7[4:1],,
{8}8-5[8:1],,1w5[8:1],,
,,,,
{4}6-1[8:1],5-2[8:1],8<3[4:1],,
{4}2-5[8:1],1-6[8:1],3>6[4:1],,
{4}5-8[8:1],4-1[8:1],7<2[4:1],,
{8}1-4[8:1],,8w4[8:1],,
,,,,
{8}1,1,8,8,
2,2,7,7,
{8}3,3,6,6,
45,,,,
{1},,,,,,,,
&inote_5=(150){1},
{16}4,5,4,5,
4,5,4,5,
{8}4^1[8:1],,4q8[8:1]/5^8[8:1],,
5p1[8:1],,,,
{8}2-6[8:1],,2/8-4[8:1],,
8^3[8:1]*^5[8:1],,,,
{8}5^8[8:1],,5p1[8:1]/4^1[8:1],,
4q8[8:1],,,,
{8}7-3[8:1],,7/1w5[8:1],,
,,,,
{8}4^1[8:1],,4q8[8:1]/8^5[8:1],,
4p8[8:1],,,,
{8}3-7[8:1],,3/1-5[8:1],,
1^4[8:1]*^6[8:1],,,,
{8}5^8[8:1],,5p1[8:1]/1^4[8:1],,
5q1[8:1],,,,
{8}6-2[8:1],,6/8-4[8:1],,
1,,27,36,
{16}45,,3,4,
3,,6,5,
6,,2,4,
2,,7,5,
{16}7,,2,1,
2,,7,8,
7,,,,
18,27,36,,
{8}4-1[8:1],8,4,,
5-8[8:1],1,5,,
{8}4-1[8:1],8,4,5-8[8:1],
1,5,4,,
{8}4^1[8:1],8,4,,
5^8[8:1],1,5,,
{8}4^1[8:1],8,4,5^8[8:1],
1^4[8:1],5,1,8,
{8}4-2[8:1],8,4,,
5-7[8:1],1,5,,
{8}4-2[8:1],8,4,5-7[8:1],
1V35[8:1],5,1,,
{8}8V64[8:1],5,8,,
1V35[8:1],4,1,,
{16}45,,6,5,
8,,3,4,
1^4[8:1]*^6[8:1],,,,
1b,,,,
{8}2-4[8:1],4,2,6,
2-5[8:1],5,2,7,
{8}2-6[8:1],6,2,8,
2-7[8:1],7,2,1,
{8}4^1[8:1],1,4,7,
5^8[8:1],8,5,2,
{8}4^1[8:1],8^5[8:1],4,8,
1p5[8:1],5p1[8:1],,,
{8}8^5[8:1],5,8,3,
1^4[8:1],4,1,6,
{8}8-4[8:1],4-8[8:1],8^3[8:1]*^5[8:1],,
,,,,
{8}2V46[8:1],1,2,8,
7V53[8:1],8,7,2,
{16}18,,2,4,
3,,7,5,
6,,46,,
,,35,,
{8}5-7[8:1],3,2,,
4-2[8:1],6,7,,
{8}5-7[8:1],4,3,,
2-6[8:1],8,8,,
{8}7-5[8:1],1,2,,
2-4[8:1],8,7,6-8[8:1],
{8}4,3,2-4[8:1],,
7-3[8:1],,1,,
{8}34,3h[8:2]/4h[8:6],,,
3,3,,1,
{8}65,6h[8:2]/5h[8:6],,,
6,6,,8,
{8}18,18,27,27,
36,36,45,45,
{8}4/5pp5[4:1],,,1-4[8:1],
1,,8,8,
{16}8,4,6,,
1,5,3,,
8,4,7,,
1,5,2,,
{8}2-4[8:1]/8,1,2V86[8:1]/8,7,
8V24[8:1]/2,,,,
{8}3-5[8:1]/5,2,3/5V31[8:1],6,
3V57[8:1]/5,,,,
{16}17,,2,4,
3,,17,,
28,,7,5,
6,,28,,
{8}1b^4[8:1]*^6[8:1],,1bp5[8:1]*q5[8:1],,
,,,,
{8}7-5[8:1]/1,8,7V13[8:1]/1,2,
1V75[8:1]/7,,,,
{8}6-4[8:1]/4,7,6/4V68[8:1],3,
6V42[8:1]/4,,,,
{16}24,,7,8,
7,,24,,
57,,2,1,
2,,57,,
{16}18,,1,6,
2,,8,3,
7,,1,6,
2,7,3,,
{8}8/4-6[8:1],3,8/4V28[8:1],7,
8V64[8:1]/4,,,,
{8}1-7[8:1]/5,2,1/5V71[8:1],6,
5/1V35[8:1],,,,
{16}34,,7,1,
7,,34,,
56,,2,8,
2,,56,,
{8}4b-2[8:1]/7bv2[8:1],,4bq1[8:1]/7b<3[8:1],,
,,,,
{8}1/5-3[8:1],6,1/5V71[8:1],2,
1V35[8:1]/5,,,,
{8}8-2[8:1]/4,7,8/4V28[8:1],3,
4/8V64[8:1],,,,
{8}1-5[8:1],,8-4[8:1],,
2^5[8:1],2,7,7,
{16}56,,6,5,
1,,3,4,
8-3[8:1]*-5[8:1],,,,
8b,,,,
{16}18,,1,8,
1,,2,8,
2,,3,8,
3,,4,8,
{8}4^1[8:1],4,8^5[8:1],8,
1,1,,,
{16}15,,5,1,
5,,6,1,
6,,7,1,
7,,8,1,
{8}8^5[8:1],8,1^4[8:1],1,
5w1[8:1],5,5,,
{16}18,,8,1,
7,,2,8,
3,,7,1,
6,,3,8,
{16}4,,6,1,
5-8[8:1],,5-2[8:1],,
5-1[8:1],,,,
,,,,
{8}2^5[8:1]/8,7,28,,
7^4[8:1]/1,2,71,,
{8}1h[8:3]/8h[8:3],,,,
{16}1,8,1,8,
1,8,1,8,
{8}1pp1[4:1],,1p5[8:1]/8^5[8:1],,
8p4[8:1],,,,
{8}1^4[8:1],,1-5[8:1],5w1[8:1],
1w5[8:1],,,,
{8}8qq8[4:1],,8q4[8:1]/1^4[8:1],,
1q5[8:1],,,,
{8}8-5[8:1],5^8[8:1],8w4[8:1],,
,,,,
{8}1pp1[4:1],,1p5[8:1]/5^8[8:1],,
5p1[8:1],,,,
{8}8^5[8:1],,8-4[8:1],4w8[8:1],
8w4[8:1],,,,
{8}8qq8[4:1],,8q4[8:1]/4^1[8:1],,
4q8[8:1],,,,
{8}1-4[8:1],4^1[8:1],1w5[8:1],,
,,36,,
{16}18,,2,1,
2,,7,8,
7,,3,1,
3,,6,8,
{16}6,,3,4,
3,,6,5,
6,,,,
,,,,
{1},,,,,,,,
