&title=limbo(feat.初音ミク)
&artist=椎乃味醂/初音ミク
&first=0.6
&lv_5=14
&des_5=angrer
&inote_5=
(99.5){4}4x>5[4:23],{1},,,{4},,,{8},4,
,E4,,3,,E3,
,2,,E2,,1,,E1,
,1x>8[2:3],,E1,,E8,,E7,
,E6,,E5,,E4,,3x,
{4}2b/1b,{8}8/3,3/8,{4}4h[4:1],{8}6,5,
4-7[8:1],3,2,1,8-4[8:1],7,6,5,
,3/6,3/6,7/2,7/2>6[4:1],8,8,7,
7V53[4:1],7,8,1,2,2,3/1w5[12:1],1,
{4}1b,{32}3/7>5[8:3],{16},{32}4,{8}6,7/3h[4:1],{4},{8}2,
1v4[8:1],2,1/5v8[8:1],6,5/3<6[8:1],2,3/1-5[8:1],8,
4/1,{32}3-8[8:1],{16},{32}6,{8}4,7/3,6-1[8:1],5,6/4-7[8:1],3,
4/2-5[8:1],1,2/8-4[8:1],7,8/3-8[8:1],2,3/5,6,
{2}7bh[#4.82412],{16}1,2,{8}3,{16}2,3,{8}4,
E4/B4,B3/E4,{4}E2/A2,{16}1,2,{8}3,{16}2,3,{8}4,
(199){4}5,5,{2}2<5[1:1],
{4}E3/B2,B3/E3,E4/B3,E4/B4,
4,4,{2}1>5[8:7],
{8},6x,7x,8x,7x,8x,1x,4,
7h[8:1],4,7h[8:1],4,6h[8:1],4,6h[8:1],4,
6,3,6,3,5,3,5,5,
3h[8:1],5,3h[8:1],5,2h[8:1],5,2h[8:1],5,
2,4,2,4,1,4,1,1,
4-7[8:1],4,8-3[8:1],8,5-8[8:1],5,1-4[8:1],1,
6-1[8:1],6,2-5[8:1],2,8-4[8:1],8,3,3,
{16}1,5,1,5,2,6,2,6,3,7,3,7,4,8,4,8,
{32}4x,3x,2x,1x,8x,7x,6x,5x,4x,3x,2x,1x,8x,7x,6x,5x,4,3,2,1,8,7,6,5,4,3,2,1,8,7,6,5,
{4}4xv5[8:1]*v3[8:1],4x-2[8:1]*-6[8:1],4x-8[8:1],4x,
1xV35[8:3],{8}5,6,7,8,{4}1,
2b/7b,{24}1x/8x,2x,3x,4x,{16},{48},{24}1x,2x,3x,4x,{16},{48},{24}1x-5<8[8:5],2x,3x,4x,{16},{48},{4}1,
{8}3,4,3,2,{4}1-5[8:1],
1b/8b,{24}7x,6x,5x,4x,{16},{48},{24}3x,4x,5x,6x,{16},{48},{24}7x,6x,5x,4x,{16},{48},{4}3v8>3[2:1],
{8}4,5,6,7,{4}8,
4b/1b,8-5[8:1]*-6[8:1],8-3[8:1]*-2[8:1],8<4v7[8:5],
8,{8}3,3,2,2,{4}1,
6b/1b-4[8:1],1-5[8:1],1-6[8:1],1V75-3[4:3],
1,{8}4,3,2,1,{4}8-4-1[4:1],
8b/5b,{24}5x,6x,7x,8x,{16},{48},{24}5x,4x,3x,2x,{16},{48},{24}5x,6x,7x,8x,{16},{48},{8}1-3[8:1],
8-4[8:1],1-5[8:1],8-6[8:1],1,8,{4}4w8[8:1],
4b,{24}2x/6x,3h[6:1]/5h[6:1],{16},,{24},2x/6x,1h[6:1]/7h[6:1],{16},,{24},2x/6x,3h[6:1]/5h[6:1],{16},,{24},2x/6x,
1x/7x,{16},,{24},{8}2-6[8:1],6-2[8:1],2>5[8:1],7,{4}8-6[8:1],
8b-4[8:1],8/2-4[8:1]*-6[8:1],2-8[8:1],7-5[8:1]/2-5[8:1],
2/7,{8}4-2[8:1],4-6[8:1],4-1[8:1],4-7[8:1],4-8[8:1],4,
{4}4b,{8}6,6,5/8-3[8:1],5,8/4,4h[4:1],
,2,1/5<2[4:1],1,5/2v7[6:1],2,3,3h[4:1],
,8,7/4,{16}6,5,{8}6,7/4>1[8:1],4,4/8h[4:1],
,2,6/3,{16}4p7[4:1],5,{8}4,4/7>2[6:1],6,6h[4:1],
,3,7/2,3/6,5-1[8:1],1<6[6:1],5,2,
,3,4/5,6,4-8[8:1],8<5[6:1]*>3[6:1],{4}4,
{8},4,6/3,2/7,8-4[8:1],4V68[24:5],8,2,
,3,2/7,6/2,1-5[8:1],5V71[24:5]*V31[24:5],{4}1,
{2}A1f,{8}2/8,3-7[8:1]/7-3[8:1],4/6,7/3,
,2,1/6,2/7,8-4[8:1],4w8[8:1],{4}8,
{8},6/2,3/5,4,5q1[8:1],1q5[8:1],5,2,
,3,{16}2,2,{8}4,1-5[8:1],5V31[24:5],1,6,
7b,7,8,8,2/1,2/1,3/7,3/7,
4>1[8:1],8<5[8:1],4,8,{24}1x-5[8:1],2,3,8x-4[8:1],7,6,{8}1x,8x,
{16}3bx,5x,3x,5x,2,7,2,7,1,2,3,4,8,7,6,5,
1,2,3,4,5/1,8,7,6,5/1,2,3,4,5/1,8,7,6,
{4}5/C,{8}B2,B6,B3,B7,E3,E5,
,C,E7,B3,B6,B2,E6,C,
