&title=この子の七つのお祝いに
&artist=あさき
&first=0.24
&des=Kondou
&lv_5=14
&inote_5=(161){1},,{16}
4,5,4,5,4,5,4,5,4,5,4,5,4,5,4,5,
2b,,8,1,8,,6b/5-2[8:1],,,,8,,8,,3,4,
1b,5,1,6,2,7,2,8,3,1,3,1,3,,24,,
6b/5b,,1,8,1,,4b/3b,,8,1,8,,6,5h[8:2],,3,
,3,4,2,3,1,2,8,1,7,8,6,1b/5b,,,,
3/4,,3,4,2,,26,,2,1,2,,48,,47,,
6/4,,6,5,7,,73,,7,8,7,,2,1,2,,
5b,4,6,3,7,7,2b,1,3,8,4,4,6,5,6,,
8-3[8:1]/1b,,,5>2[8:1]/8b,,,5b,,,,7,8,7,8,7,,
4-1[8:1]/5b,,,4,6,,6,,3-8[8:1],,,3,7,,7,,
2-7[8:1],,,2,8,,8^5[8:1],,,,8,,4,3,2,1b>4[8:1],
,,,,,5,6,7,8b,,2,2,,6,6,,
4,5,5,5,5,6,,5-1[8:1]/7-4[8:1],,,7b/5b,,,,,,
8b/2b,,2,,2,,2,,37,,3,,3,,3,,
46,,4,,4,,4,,5/4-1[8:1],,5,,5,,,,
62,,6,,6,,6,,73,,7,,7,,7,,
8,1,7,2,,6,5,6,5,4,3,2,4,3,2,1,
8b/4-1[8:1],,4,,7-2[8:1],,7,,5-1[8:1],,5,,7-3[8:1],,7,,
4>1[8:1],,,,1,,8,,7-2[8:1],,6,,5,,4,,
3<6[8:1],,1,,1,,1,,7<4[8:1],,1,,1,,1,,
3,,17,,75,,53,,1,2,8,1,7,8,6,6,
4h[8:6],,,,,,3h[8:2],,,,,,5,,5,,6h[8:6],,,,,,7h[8:2],,,,,,5,,5,,4h[8:5],,,,,,3h[8:2],,,,,,51,,,,
78,78,,16,16,,52,52,,43,43,,2,1,3,8,
4b,,,,43,,6h[8:2]/5,,,,5,,7,,7,,
1,,,,12,,7h[8:2]/8,,,,8,,6,,6,,
4,,,,43,,6h[8:2]/5,,,,5,,7,,7,,
2,2,1,,34,,1,8-4[128.8#10:1],,,,,4,,,,
6b,5,6,5,6,,7,7h[8:1],,8,8h[8:1],,1,,1,,
3,4,3,4,3,,2,2h[8:1],,1,1h[8:1],,8-3[12:1],,,8-5[12:1],
,,8,,4,4b,,32,,1,2,8,1,7,8,6,
2,4,2,4,3,3h[8:1],,6,5,7,8b,,4,3,1b,,
4^7[16:4]/7^4[16:4],,2b,,7^2[16:4],,,,,,,,4,,3,3h[8:1],,5,5h[8:1],,3,4,2,5,1,,78,,3,,81,,4,5,3,6,2,2b/4b,,8b/1b,,(161.001)75,,3,4,,6,8,,24,,6,5,,3,1,,76,,,76,,,76,,{32}5,6,{16},,,8,,8,8,1,7,2,6,3,5,4,4,5/3,,,,
8b/1b,,8b/1b,,6,4,5,2,7,5,6,1,5,3,4,1,6,4,5,8,6,4,5,2,7,5,6,1,1-5[8:1]/4b,,6b,,8b,,,,3,5,4,7,2,4,3,8,4,6,5,8,3,5,4,1,3,5,4,7,2,4,3,8,1h[8:1],,5h[8:1],,7h[8:1],,4h[8:1],,2,3,2,3,1,4,1,4,8,5,8,5,7,6,7,6,{24}8b,1,2,5b,6,7,1b,2,3,6b,7,8,2b,3,4,7b,8,1,{32}3b,4,5,6,1b,8,7,6,{16}
5b/2b,,,,81,,2>5[8:1]/7,,,,2,,1,,
8,,7-4[8:1],,4<7[8:1],,7>2[8:1],,3h[8:2],,,,,,
4,,6-2[8:1]/5-2[8:1],,,,6<1[8:1]/5,,,,3-7[8:1],,3,,7,,
6,,5,,1,1,8,,82,,3b/4b,,,,6,5,7,5,8,4,
1,2,1-5[8:1],,8,,7-4[8:1]/1b,,,,4,3,2,1,5,5,
8,7,8-4[8:1],,1,,2-5[8:1]/8b,,,,5,6,7,8,1,,
1b/2b,,3,4,5,,4,5,6,,5,6,7,,81,,
3b,4,2,5,8b,7,1,6,2-6[8:1],,5-8[8:1],,2,,5,,
1b,,64,,7,7,8,,2,2,4-1[8:1],,75,,5/4,,
8,,35,,2,2,1,,7,7,5-8[8:1],,24,,5/4,,
1,,65,,43,,2,12,,7,78,,51,62,73,84,
1/5-2[8:2],,,,2-6[8:2],,,,8,,,,7,,7,,
5,,6,,54,,3,,2-6[8:2],,,,6-1[8:2],,,
,8,,,,5,,5,,3,,4,,26,,7,,
81,,2,,51,,8,,76,,4,,51,,2,,
32,,4,,64,,67,,7/1>4[8:1],,,,2>5[8:1],,,,
3<6[8:1],,,,4<7[8:1],,,,5-8[8:1],,,,8,,1,
,2h[8:2],,,,{12}4,4,4,3>8[8:1]/5>2[8:1],,,5-8[8:12],,,,
,,,,,,,,,,,,,,,
