&title=寓言预见遇见你的那刻
&artist=小野道/诗岸
&first=0
&des=你是风儿~我是山~
&lv_5=13
&inote_5=(120)
{1},
{8}3h[4:1]/4h[4:1],,,2h[4:1]/4h[4:1],,,2/4,,5h[4:1]/6h[4:1],,,5h[4:1]/7h[4:1],,,5/7,,
2h[4:1]/4h[4:1],,,4h[4:1]/1h[4:1],,,4/1,,5h[4:1]/7h[4:1],,,5h[4:1]/8h[4:1],,,E8,B3,
6h[4:1]/4h[4:1],,,5h[4:1]/3h[4:1],,,1/8,,1h[4:1]/7h[4:1],,,8h[4:1]/2h[4:1],,,3/6,,
4h[4:1]/5h[4:1],,,6h[4:1]/3h[4:1],,,1/8,1bV74[8:3]/8bV25[8:3],,,,,,1/8,1/8,,
{8}2>5[8:1]/7,,1,,8<5[8:1]/3,,1,,
{16}2h[8:1],,5,3,4pp3[4:1],,1/8,,
{8},,B7/B8,,
7<4[8:1]/2,,8,,1>4[8:1]/6,,8,,5b/6h[8:1],2,5h[8:1]/4b,1,6bqq1[4:1]/3b,,,,
3h[4:1],,5,,
{16}6h[16:3],,,4,4,,,,
{16}4/5,,,3/6,,,2/7,,1-4[8:1]/8-5[8:1],,,,,,,,
{16}2h[16:6],,,4,,,5,,7/2>5[16:3],,,,,,,,6h[8:3],,,8,,,1,,2/8<5[16:3],,,,,,,,
{16}3h[8:3],,,5,,,6,,5/4q5[4:1],,,,,,,,7h[16:3],,,5,,,4/6,,
2-5[8:1]/7-4[8:1],,,,,,,,
{16}3-5[8:1]/5,,2,,6,,7,,8-4[8:1],,,,1,,,,6-4[8:1]/4,,7,,3,,2,,
1-5[8:1]*-4[8:1],,,,1,,,,
{16}6h[8:3],,,4,,,3,,4/5p4[4:1],,,,,,,,3h[4:1],,2,,4h[4:1],,1,,3h[4:1],,E8,E7,E6,,,,
{16}6h[8:3],,5,5,,7,7qq3[4:1],,,,1,,1,,,,2-4[8:1],,,1,2,,8,,1-5[8:1]/2-4[8:1],,,,,,,,
{16}3h[8:3],,4,4,,2,2pp6[4:1],,,,8,,8,,,,5hx[16:2]/7hx[16:2],,,4h[16:2]/2h[16:2],,,
1h[16:2]/8h[16:2],,,,B1/B2/E2/B6/B5/E6,,B3/B4/E4/B7/B8/E8,,,,
{16}6h[8:3],,5,5,,7,7pp4[4:1],,,,3,,3,,,,2-5[8:1]/5,,,1,2,,,,7-4[8:1]/4,,,8,7,,
1h[4:1],,,,4-7[8:1],,8-3[8:1],,4,,8,,5,,2h[8:1]/7h[8:1],,,,
3,6,3,6,2,7,2,7,1>4[64:4]/8,,,,
{32}7,6,5,,,,,,
{16}3h[4:1],,1,,5h[4:1],,7,,4w8[8:1],,2/6,,4,,,,
2-5[8:1]/8,,1,,8-3[8:1],,7,,5b-2[16:2]*-1[16:2],,,,,,,,
{16}8V64[64:11],,4,,3,,2,,8>4[128:21],,,,6,,6h[4:1],,,,5<8[64:8],,
4,,2h[4:1],,,,1-5[8:1],,8/2,,1b,,
,,6h[4:1],,8,,4h[8:1],,1w5[8:1],,3/7,,1,,,,
7-4[8:1]/1,,8,,1-6[8:1],,2,,4b-7[16:2]*-8[16:2],,,,,,,,
1>5[4:1]/6,,,,5qq6[4:1],,,,8,,,,1,,1,,
4/6,,,5/3,,,1/8,,2-6[8:1]/7-3[8:1],,,,,,,,
4h[4:1]/6,,,,E8,,,,5h[4:1]/3,,,,E2,,,,3-5[8:1],,,,7-4[8:1],,,,1-5[8:1],,,,,,,,
6h[4:1]/4,,,,E8,,,,3h[4:1]/5,,,,E2,,,,7-5[8:1],,,,1-3[8:1],,,,8-4[8:1],,,,,,,,
3-5[8:1]/5,,,,3/5,,,,6-4[8:1]/4,,,,6/4,,,,3-5[8:1]/5,,
2,2,7-4[8:1],,8,,1b-5[8:1],,,,1,,,,
6-4[8:1]/4,,,,6/4,,,,3-5[8:1]/5,,,,3/5,,,,4,4,6,6,1>4[8:1]*<6[8:1],,3/7,,1bw5[8:1],,,,,,,,
3qq4[2:1]/7qq8[2:1],,,,,,,,,,,,,,,,1>5[2:1]*<5[2:1],,,,,,,,,,,,,,,,
3qq5[2:1]/6pp4[2:1],,,,,,,,,,,,,,,,6v7>1[16:6]/4v3>1[16:6],,,,,,,,,,,,E8,,B2,,
3h[8:1]/4h[8:1],,,,3h[8:1]/4h[8:1],,,,5h[8:1]/6h[8:1],,,,5h[8:1]/6h[8:1],,,,
1h[8:1]/2h[8:1],,,,1h[8:1]/2h[8:1],,,,7h[8:1]/8h[8:1],,,,7h[8:1]/8h[8:1],,,,
4/5
,,4/5,,6/3,,6/3,,7/2,,7/2,,1/8,,1/8,,2h[8:1],,8,8,3,5,4,,7,5,6,4,5,3,4,2,
3q5[4:1]/1h[4:1],,,,,,,,1>4[16:1],,,,{32}7,6,5,,,,,,
{16}7h[8:1]/1,,5,,2h[8:1]/8,,4,,1w5[8:1],,4/6,,1,,,,
7>2[16:2],,6,,4<7[8:1],,3,,1b-4[8:1]*-6[8:1],,,,1,,,,
3qq4[4:1],,4,,5,,6,,7pp4[4:1],,,,3,,3h[4:1],,,,
1>4[8:1],,8,,6h[4:1],,,,5b-2[8:1]*-8[8:1],,3/7,,5,,,,
2h[8:1]/8,,4,,7h[8:1]/1,,5w1[8:1],,2/8,,5,,,,
2<7[8:1],,3,,5>2[8:1],,6,,8b-5[8:1]*-3[8:1],,,,8,,,,
7<3[4:1],,,,3pp6[16:5],,,,1,,,,8,,8,,
2/4,,,5/7,,,1/8,,3-8[8:1]/6-1[8:1],,,,3b/6b,,,,
2/6,,5,3,4,,1,,7/3,,4,6,5,,8,,
2/6,,5,3,7/8,,4/5,,2>5[8:1]/1q6[8:1],,,,2/1,,,,
8/3,,6,4,5,,3/7,,1/6,,3,5,4,,2/6,,
1-3[32:3],,5-7[32:3],,1,,5,,1w5[8:1],,,,1,,,,
7/3,,4,6,5,,8,,2/6,,5,3,4,,1,,
7/3,,4,6,1/2,,4/5,,8p3[8:1]/7<4[8:1],,,,7/8,,,,
1/6,,3,5,4,,2/6,,8/3,,6,4,5,,3/7,,
4b/6b,,6,5,4b/7b,,6,5,8b-3[8:1]/4b,,,,8/3,,,,
1h[4:1],,,,5,,,,7h[4:1],,,3,3,,,,
5/7,,,4/2,,,5/4,,2/7,,,,1-3-8-4-7[16:9]b/E8/D8,,
E
