&title=恋ひ恋ふ縁
&artist=KOTOKO
&first=0
&des=鞍馬玄十郎
&lv_5=13+
&inote_5=(144)
{1},
{8}1,7,3,5h[4:1],,3,2,1h[2:1],8,8,8,8<5[8:1],,{16}1,2,3,,1,,
25,,3,4,3,,8,,47,,6,5,7-4[8:1]b,,8,,
{8}1b,3,5,7-3[8:1]/3,,7/4-7[8:1],,2/4qq5[4:1],,8,7,6b-1[8:1],,2h[1:0],2h[1:0],2h[1:0],
8,2-6[8:1]/6,3,2/5V37[4:1],,15,2,3>8[8:1],,7-3[8:1],5h[8:1],7x,{16},,3,4,2-5[8:1]b,,2,,
{8}2/8b,6,4,2-6[8:1]/6,,2/5-8[8:1],,5pp4[4:1]/7,,1,2,3b>8[8:1],,7h[1:0],7h[1:0],7h[1:0],
1,7-3[8:1]/3,6,7/4-6v1[4:1],,84,7,6<1[8:1],,2-6[8:1],4h[8:1],2x,,5,36,,
36,1>4[8:1],1,6,6,8<5[8:1],8,3,3,2-6[8:1],2,5-8[8:1],5,1>4[8:1],1,8,8<5[8:1]b*q3[2:1],,8x,,,{16}A1,A8,A7,A6,A5,,2x,1x,8x,7x,6hx[8:1],,5,,3h[8:1],,4,,8h[8:1],,1,,
{8}27,2>5[8:1],2,8,8,7<4[8:1],7,1,1,2-7[8:1],2,6-2[8:1],6,8-4[8:1],8,5,5-8[8:1]b,,3/5x,{16}2x,1x,2x,1x,2x,,3h[8:1],,4,,7h[8:1],,8,,2h[8:1],,1<6[8:1],,1>4[8:1],,1-5[8:1],,,,,,
{8}1x-3[8:1],,8,8-4[8:1],,8/7h[4:3],,{32}E1,E2,,,,,,,C,B3,,,,,,,E6,E5,,,
{16},,3,4,3,,25,,{8}6-8[8:1],,5,5-1[8:1],,4h[4:3]/5,,B2/E2/E3,,E1/B8/E8,,B6/E6/E7,
,36,36,1,7-3[8:1]/3,,17,2-5[8:1],,2/6<4[32:5],,{32}6b/1h[4:1],,,,,,,,6bx,7x,8hx[16:3],,
{8},2x,6,35,2,18,56,{16}3,4,3,4,2-6[8:1],,1,,8,,7-3b[8:1],,5,,4,,2>5[8:1],,2<7[8:1],,2-6[8:1],,,,{64},Cf,,,,,,,
{8},,8-4[8:1]/2h[4:1],,,3,2>5[8:1]/5,,26,,1-5[8:1]/7h[4:1],,,6,7<4[8:1]/4,,37,,
8p4[8:1]/2h[4:1],,,3,2-5[8:1]/5,,B7/2,,1q5[8:1]/7h[4:1],,,6,7-4[8:1]/4,,7/B2,,
{8}1h[2:1],,4V61[4:1],4,4,,3h[4:1],,8h[2:1],,5>3qq1[4:1],5,5,,
7,7,7-3[4:1],,3-8[4:1],,8-5[4:1],,5-1[4:1],,1pp3[2:1]*<3[2:1],,,,,,,,
{8}3,2,1,8,7,16,1-5[8:1],,
{16}1b-3[8:1]/8b,,7,7,1-5[8:1],,5-2[8:1],,71,,8,7,6,,3-8[8:1],,8-6[8:1],,6v3[8:1],,5,,7x,,1w5[8:1],,8,,1,,,,
6x/2-5[8:1],,,8,2,,7,,3x/7<4[8:1],,,1,7,,2,,
{32}3x/E5,E6,E7,,3,,,,3x/E5,E6,E7,,3,,,,3x-7b[8:1]/E5,E6,E7,,,,,,3/E6f,,,,,,,,
{16}2-6[8:1],,8,8,2V41[4:1],,7,,25,,8-4[8:1],7,6h[4:1],,8<5[8:1],,,,3qq3[4:1]/8,,3,,3pp3[4:1],,6,,6,,7-2[8:1]b,,7,,1b,,
3,4,3,,18,,47,,6,5,7,,8,,
{8}1>4[8:1],1<6[8:1],1-5[8:1],1,1,
{16}8,,8-4[8:1],,,,8b-6[8:1]/1b,,2,2,8-4[8:1],,4-7[8:1],,28,,1,2,3,,6-1[8:1],,1>3[8:1],,3q7[8:1],,4,,2x,,8w4[8:1],,1,,8,,,,
3x-1[8:1]/7,,,8,8-4[8:1],,7,,8/6x-8[8:1],,,1,1-5[8:1],,,,
12,,3,,45,,6,,7-4[8:1]/1-4[8:1],,,,{64}71,E7/B7f/B1f/E2,,,,,,,,,,,,,,,
{16}8hx[16:3],,,5,7-3[8:1],,3,,1hx[16:3],,,4,2-6[8:1],,6,,8hx[16:3],,,5,7-4[8:1],,1,2,3qq4[4:1],,,,3/4<3[4:1],,,,Cf,,
{16},,,,,,1x/8x,,2,4,3,,56,,18,,2x,3x,4x/5x,,8x,7x,5x/6x,,1x,2x,3x/4xq6<5[8:7],,7,,4b/5,,,,,,,,Ch[4:1],,,,,,,,
{8}8<5[8:1],1,2,3,4v1[8:1],5,6,7h[8:3],,1,1,2,5h[4:1],3,3,2,8-5[8:1],,5,3,1-4[8:1],,4,6h[4:1],,{16}2,3,4,,8,,1,,2h[4:1],,4,,4,,B5/B6,,
3,4,2,,3,4,2,,3,4,2,,2,,{8}8-6[8:1],8,1-5[8:1],1,8-4[8:1],8,1-3[8:1],1,,
{16}8x-4[8:1],7x,6hx[8:1],,,,,,8x,7x,6x,,3h[8:1],,
{8}1-5[8:1],8,7,7,4-7[8:1],3,2,2,1b,{16}3,4,3,,18,,36,,,,,,,,
{8}3,2,1,8,7,6/1,/1>4[8:1],
{16},,1b-5[8:1]b/7b,,5-2[8:1]b,5,1,,8,,6<1[8:1],,1-5[8:1],2,3,,3,,
2>4[8:1]b,,4pp6[8:1]b,,82,,6,,8w4[8:1],,7,,8,,,,
7-4[8:1]/3x,,,1,7,,3,,6x/2>5[8:1],,,8,2,,6,,
{32}7x/E5,E4,E3,,7,,,,7x/E5,E4,E3,,7,,,,7x-3[8:1]b/E5,E4,E3,,,,,,7/E2f,,,,,,,,
{16}8-5[8:1],,1,1,8V26[4:1],,3,,48,,4<7[8:1],3,2h[4:1],,4>1[8:1],,,,8-4b[8:1]/4,,6-2-8-4[8:3],,8,,6,,3,,3,,3,,
1b,,3,4,3,4,3,,
{8}1x>4[8:1],1x-6[8:1],1x-4[8:1],1x<6[8:1],1x-5[8:1],1x-6[8:1],1x-4[8:1],1x,1x,
8,8-4[8:1]b/5x,,{32}8b/A5f,C,A1,,,,,,,,,,,,,,
{16},,,,2-5[8:1]/4-8[8:1]b,,,,2b/4bV62[4:1],,,,,,,,8h[4:1],,,,1,1,7,7,
4x>1[8:1],,,8,8-4[8:1],,7,,8/5x<8[8:1],,,1,1-5[8:1],,,,12,,3,,45,,6,,1>4[8:1]/7<4[8:1],,,,{64}17,A2f/E3/A6f/E6,,,,,,,,,,,,,,,
{16}2b,,,5,8V64[8:1],,1,,3/8b,,,3,1>5[8:1],,7,,1b/5,,,6,1-5[8:1],,2,,1b<6[8:1]*>4[8:1]/4,,,,1b-5[8:1]b,,,,{128}1b/5bx-7>8v2>3-5[2:1]b,Cf,,,,,,,,,,,,,,,,,,,,,,,,,,,,,,,
{16},,,,,,,,,,,,1b/8b,,7x,6x,5bx/B3/E4,,1x,2x,3bx/B6/E7,,8x,7x,6bx/2x-5[8:1]b,,1,,
{8}8b,6,4,2-6[8:1]/6,,2/5-2[8:1],,7/5pp4[4:1],,1,2,3bV51[4:1],,7h[1:0],6h[1:0],5h[1:0],
1,7-3[8:1]/3,6,7/4V62[4:1],,84,7,6<1[8:1],,2-6[8:1],4h[8:1],2x,,{16}6,5,7-4[8:1]b,,7,,
{8}1b/7,3,5,7-3[8:1]/3,,7/4-1[8:1],,2/4qq5[4:1],,8,7,6bV48[4:1],,2h[1:0],3h[1:0],4h[1:0],
7b/4b,25,38,16,{24}4,5,4,5,4,5,4,5,4,5h[8:7],,,
{8},6x,7x,8x,1x,2x,3x,2b/7b,,1-5[8:1]b/8-4[8:1]b,27,{64}1b/8b,Cf,,,,,,,
