&title=Re:birth Day
&artist=Roselia
&first=0.639
&des=再生
&lv_5=13+
&inote_5=(170){4}
4>5[4:13]/5b,,,,,,,,
{8}6h[256:1],,,8h[256:1],,,2h[256:1],,,,,,4w8[8:1],,,,
{8}6b-2[8:1]/2,7,5,4-1[8:1],3,8,7<4[8:1],6,8,
1>4[8:1],2,5,7-3[8:1],3-7[8:1],7,,
2b-5[8:1],3,1,8-4[8:1],7,4,3>8[8:1],2,
5,6,17,2,{16}3,4,2,5,3,4,2,5,
{8}3b-7[8:1],2,4,5-8[8:1],6,1,2>5[8:1],3,1,
8<5[8:1],7,4,2-6[8:1],6-2[8:1],2,,
7b-4[8:1],6,8,1-5[8:1],2,5,6<1[8:1],7,
4,3,82,7,{16}6,5,6,3,4,2,5,1,
{4}2b<7[16:27]/6h[4:2],,,{32},,6,5,4,,,,{4},,,{32},,,,,,,3,
4>5[16:19],5,,,,,,,{4},,,,,{16}4-8[8:1],4,4,4,{4},
{8}26,2h[8:1],4,3-5[32:3],,6,6-3[8:1],,
2,2,1,3,8,4/8<4[32:7],,2h[8:3],
,,3-7[8:1],,,1,1,1,
28,7,28,3,5-8[8:1],46,,,
{8}73,7h[8:1],5,6-4[32:3],,3,3-6[8:1],3,
7,7,8,6,,1/2<6[32:7],,4h[8:3],
,,5-1[8:1],,,6,6>3[8:1],6,
1-4[8:1]*-6[8:1],2,1,,{16}37,,6,5,6,,3,4,
{8}3-1[32:3],2,35,6h[8:1],8,7<4[8:1],1,37,
,1-5[8:1],8,17,,6<2[32:7],6,4h[8:3],
,,3,{16}4,3,{8}4-2[32:3],5pp4[32:11],4,5,
1,,3-6[8:1],2,4,,57,5,
{8}6-8[32:3],7,64,3h[8:1],1,2>6[32:7],8,62,
,7,7/8-4[8:1],,1,2,35,6,
6-8[8:1]/1-5[8:1],,16,,1-5[8:1]/4-2[8:1],,41,,
1-5[8:1]/4-8[8:1],,14,,1-5[8:1],3,7,,
4/6h[8:7],,,,,,,5,5h[8:7],,,,,,,
4,4h[8:7],,,,,,,3,3>6[8:4],,,,,,3,,
45,,34,3,34,3,34,,45,,57,7,57,7,57,,
45,,34,3,65,6,24,2,57,7,8-4[8:1]/1-5[8:1],,8<5[8:1]/1>4[8:1],,81,,
{16}3b/6b,,2,4,3,4,1b,,7,5,6,5,8b,1,{8}6bqq4[8:3]/2h[8:7],
{4},,,1-5[8:1],
{8}
21,8>3[8:1],,84,6-2[8:1],,56,7<4[8:1],
,71,1-4[8:1]*-6[8:1],,1w5[8:1],,1<3[32:11],,
2,2,2,2,1/2-6[8:1],,5pp4[8:3],5,4,4,3-7[16:3],,23,,8-4[8:1],,
78,1<6[8:1],,51,3-7[8:1],,34,2>5[8:1],
,28,8-5[8:1]*-3[8:1],,8w4[8:1],,8>6[32:11],,
7,7,7,7,7-3[8:1]/8,,2,4p6[48:13]*>6[48:13],
5,4,,,{16}45,,3,4,2,6,5,7,
{8}3b-8[8:1],4,5,6,3-8[8:1]/7,4,5,5,
6-1[8:1]*-1[8:1]/2,5,4,3,6-1[8:1]*-1[8:1]/2,5,4,4,
{8}7/3b>8[8:1],4,5,6,3>8[8:1]/7,4,5,5,
6<1[8:1]*<1[8:1]/2,5,4,3,6<1[8:1]*<1[8:1]/2,5,4,4,
3b-5[32:3]/7b-1[32:3],,37,,7-3[8:1]/3,,4<2[32:9],,1,,
4-1[8:1],4,8>3[8:1]*<5[8:1],,8,,
2b/6b,1h[8:1],7,6b/5b,7h[8:1],1,2b/4b,5h[8:1],3,
4b/8b,7-3[8:1]*-3[8:1],1,3b/7b,{16},2,{8}4-8[8:1],,
34,5-2[8:1],,57,1-5[8:1],,12,8>3[8:1],
,48,5-8[8:1]*-2[8:1],,5w1[8:1],,5<3[32:11],,
4,4,4,4,4-8[8:1]/5,,6pp3[8:3],6,
1,2,2-5[8:1]*-6[8:1],,2,,5-1[8:1],,
65,4-7[8:1],,42,8-4[8:1],,87,1<6[8:1],
,51,4-1[8:1]*-7[8:1],,4w8[8:1],,4>6[32:11],,
5,5,5,5,5-1[8:1]/4,,8,2p4[48:13]*<4[48:13],
1,2,,,{16}36,,2,4,3,7,5,6,
{8}3bv8[8:1],4,5,6,3v8[8:1]/7,4,5,5,
6v1[8:1]*v1[8:1]/2,5,4,3,6v1[8:1]*v1[8:1]/2,5,4,4,
{8}7/3b>8[8:1],4,5,6,3>8[8:1]/7,4,5,5,
6<1[8:1]*<1[8:1]/2,5,4,3,6-1[8:1]/2-5[8:1],15,,,
4b>5[8:4]/8b,,,,,,,{16}4,4,
{4}3b-7[16:3]*-7[16:3]/5b,,,,
{8}3b<6[8:1]/7,2,34,1<6[8:1],8,12,4>1[8:1],3,
45,7-3[8:1],6,78,1-5[8:1],2-4[8:1],1,2,
7b-4[8:1],6,78,1-5[8:1],2,18,6<1[8:1],7,
64,3,8/2>5[8:1],1,{16}62,7,8,1,6,7,8,1,
{8}6b>3[8:1]/2,7,65,8>3[8:1],1,87,5<8[8:1],6,
54,2-6[8:1],3,21,8-4[8:1],7-5[32:3],8,7,
{16}2b,4,3,4,3,4,1b,4,3,4,3,4,8b,4,3,4,
3,4,7b,4,3,4,3,4,{32}6bw2[8:1],7,8,1,2,3,4,5,{4}6b>6[4:16]*<6[4:16],
,,,,,,,,,,,,,,,,
,
