&title=In Vain
&artist=ryhki
&first=0
&des=Neopharmazz
&lv_5=13+
&inote_5=(165){16},,,,,,,
1,,,,1,,5,,1-5[16:1],,5,5,1x,,,,
8b^7v6^5v4^3v2^1[8:13],,,,,,,,,,,,,,,,
,,,,,,,,,,,,,,,,
3^4v5^6[8:5],,,,,,,,,,,,,,,,
8^6[4:1],,,,,,,,1^3[4:1],,,,,,,,
5^6v7^8v1^2v3^4[8:13],,,,,,,,,,,,,,,,
,,,,,,,,,,,,,,,,
1^4[8:4],,,,,,,,,,,,8^5[8:4],,,,
,,,,,,,,1-5[8:1],,,,,,,,
8,,4,,8,3,,,8/2-6[8:1],,,,8,,,,
1,,5,,1,6,,,1/7-3[8:1],,,,1,,,,
4,,8,,4,7,,,4/6-2[8:1],,,,4,,,,
5,,1,,5,2,,,5/3-7[8:1],,,,5,,,,
84,,8,,73,,7,,62,,2,,15,,1,,
62,,62,,73,,73,,84,,84,,1qq5[8:7]/5qq1[8:7],,15,,
,,,,,,,,,,,,,,,,
8,,,,8,,4,,8-4[16:1],,4,4,8x,,,,
2bp7[8:5]/6bp3[8:5],,,,,,,,,,,,,,,,
1s5[4:1],,,,,,,,E1,,,,8,,8,,
8-4[16:1],,,,4-8[16:1],,2,,8-4[16:1],,2,,4,,,,
1-5[16:1],,,,5-1[16:1],,7,,1-5[16:1],,7,,5x,,,,
7-3[16:1],,7,,3-7[16:1],,1,,7,,1,,3-6[8:3]*-8[8:3],,3,3,
,,,,,,,,1x,,2,,3,,4,,
5-1[16:1],,,,1-5[16:1],,7,,5-1[16:1],,7,,1,,,,
4-8[16:1],,,,8,,2,,4-8[16:1],3,4,3,4,,,,
3-7[16:1],,,,6-2[16:1],,6,,4-8[16:1],,4,4,4,,,,
E8/E2,,,,E6/E4,,,,8,,7,,6<4[2:1],,5,,
4b,,,,,,,,1,,2,,3>5[2:1],,4,,
5b,,,,,,,,8,,7,,6,,5,,
E4f/B4/B3,,,,E6f/B5/B6,,,,E2f/B2/B1,,,,E8f/B7/B8,,,,
71,,1,,1-5[16:1]/3,,1,,1x/5,,,,82,,73,,
6/4^7[16:1]*-7[16:1],,,,4^1[16:1]*-1[16:1],,,,4,,,,71,,62,,
5^2[16:1]*-2[16:1],3,5,,5^8[16:1]*-8[16:1],,,,5,,,,8,1,8,1,
8^5[16:1]*-5[16:1],,,,8^3[16:1]*-3[16:1],,,,8,,,1,1-4^2[8:3]*-6^8[8:3],,1,,
,,,,,,,,1x,,2,,3,,4,,
Ch[8:1],,,,56,,74,,56,,,,45,,2,5,
43,,,,56,,,,43,,,5,46,,53,,
81,,,,,,{24}8,1,8,{16}1,,72,,4qq4[8:3]/5pp5[8:3],,,,
45,,,,,,,,8,,7,,6,,5,,
4b^3p2^1p8^7p6^5[8:13],,,,,,,,,,,,,,,,
,,,,,,,,,,,,,,,,
7^8q1^2[8:5],,,,,,,,,,,,,,,,
4^2[4:1],,,,,,,,5^7[4:1],,,,,,,,
1^2q3^4q5^6q7^8[8:13],,,,,,,,,,,,,,,,
,,,,,,,,,,,,,,,,
5^7[4:1],,,,,,,,4^2[4:1],,,,,,,,
{32}8z4[4:1],E8,B7,B3,{16}E4,,,,,,,,3,,2,,1,,
8>7[16:7],,,,,,7,,8>7[16:7],,,,8,,,,
,,1,,8-4[4:1],,,,1,,7,,8,,,,
1<2[16:7],,,,,,2,,1<2[16:7],,,,1,,,,
,,8,,1-5[4:1],,,,8,,2,,1,,,,
{32}B8,B7,B6,B5,B4,B3,B2,B1,{16}2x,,3,,4<3[16:7],,,,4,,,,
,,5,,4-8[4:1],,,,5,,3,,4,,,,
5>6[16:7],,,,,,6,,5>6[16:7],,,,5,,,,
,,4,,5w1[8:3],,,,5,,,,,,,,
6qq2qq6b[2:3]/3pp7pp3b[2:3],,,,,,,,,,,,,,,,
,,,,,,,,,,,,,,,,
7x-4[16:1]/2x-5[16:1],,,,,,,,45,,,,3`E4`B4,,,,
7`E8`B8,,2`E2`B1,,6`E6`B5,,,,4-8[16:1]/5-1[16:1]`D4/D6`A3/A6,,,,,,,,
2`E2`B1,,6`E6`B5,,3`E4`B4,,,,8^5[16:1]/1^4[16:1]`E2/E8`B2/B7,,,,,,,,
7`E7`B6,,3`E3`B2,,5`E5`B4,,1`E1`B8,,6`B6`C,,,,8-5[16:1]/1-4[16:1],,,,
1b/8b,,,,E7/C/E3,,,,6/3`E6/E4`B5/B4,,,,4`E4`B3,,5`E6`B6,,
3^8[8:1]`E3`B2,,6`E7`B7,,3,,,,6-3[8:1]*^1[8:1],,,,,,,,
4qq7[2:1],,,,,,5,,6,,5,,5pp2[2:1],,,,
,,4,,3,,4,,3-6[8:1],,,,1,,8,,
7<1[8:3]/5,,,,,,1,,8-5[8:1],,,,8,,,,
2>8[8:3]/4,,,,,,8,,1-4[8:1],,,,1,,,,
{12}78,,12,,65,,{16}4^7[16:1]/3,,,,4>5[8:3]/3,,,,
45,,,,,,,,7x/2x,,,,{12}18,,27,
2-6[12:1]/7-1[12:1],,,2-5[12:1]/7-5[12:1],,,27,,,81,,72,
7-3[12:1]/2-8[12:1],,,7-4[12:1]/2-4[12:1],,,72,,,81,81,81,
7-5[12:1]/2-6[12:1],,,7-3[12:1]/2-4[12:1],,,72,,,18,,24,
24,,53,,64,,7-4[12:1]/5-2[12:1],,,7x/5x,,,
12,,78,78,,65,65,,,{24}3,4,3,4,3,4,
{12}3,,,75,,,24,,,63,,63,
{16}18,,,,,,86,,,,13,,,,,,
7-2[8:1],,,,,,,,1x,,2,,3,,4,,
Ch[8:1],,,,18,,72,,63,,,,43,,,65,
65,,,,12,,,,78,,,,54,,63,,
Ch[8:1],,,,43,,23,,21,,,,56,,67,,
78,78,,,72,,54,,6-1[8:1]/3-8[8:1],,,,6x/3x,,,,
5b>1[8:5],,,,,,,,8,,7,,6,,5,,
4b<8[8:5],,,,,,,,1,,2,,3,,4,,
E6f/B5/B6,,,,E4f/B4/B3,,,,E8f/B7/B8,,,,E2f/B2/B1,,,,
28,,8,,8-4[16:1]/6,,8,,8x/4,,,,7^4[4:1]/1-5[16:1],62,53,,
7/1-3[16:1],,,,1-5[16:1],,4,,4^7[4:1]/1-3[16:1],,,,4/1-5[16:1],,,,
1-3[16:1],,7,,7/1-5[16:1],,,,1/6,,7,,8-4[16:1]/2^5[4:1],,8,,
2/8-6[16:1],,,,8-4[16:1],,5,,5^2[4:1]/8-6[16:1],,,,5/8-4[16:1],,,,
8-6[16:1],,2,,2/8-4[16:1],,1,,18,,,1,15,,26,,
7^5[16:1]/3,,1,82,7-3[16:1]/3,,2,,7^5[16:1]/1^4[4:1],,,,1/7-3[16:1],,,,
7^5[16:1],,4,,4/7-3[16:1],,3,,2,,,8,1^4[16:1]/8-4[16:1],,72,,
8-3[16:1]/1,,,,8-2[16:1],,6,,7^4[16:1]/8-4[16:1],,,,7/8-5[16:1],,,,
8-6[16:1],,2,,8-4[16:1]/1-5[16:1],,,,1b/8b/Cf,,,,63,,72,,
8-4[8:1]/1,,7,,8/1-5[8:1],,2,,1/7-4[8:1],,6,,7/2-5[8:1],,3,,
2/6-1[8:1],,7,,6/3-8[8:1],,2,,3/7-2[8:1],,6,,7/3-6[8:1],,4,,
3/5-8[8:1],,4,,5/1-4[8:1],,2,,1/6-3[8:1],,5,,6/4-1[8:1],,5,,
47,,6,,8,8,8,8,8-4[16:1],,7,,8x/1x,,2,3,
4-1[8:1]/5,,,,4/5-8[8:1],,6,,4-1[8:1]/5,,3,,45,,6,7,
8-5[8:1]/1,,,,8/1-4[8:1],,2,,18,,{32}5,6,7,8,{16}1<4[4:1]/2p3[4:1],,83,,
12,,,,,,65,,8>5[4:1]/7q6[4:1],,,,78,,,,
,,34,,1p8[8:3]/8<1[8:3],,,,18,,,,,,,,
7bV51[4:9]/8b-4-2[4:9],,,,,,,,,,,,,,,,
,,,,,,,,,,,,,,,,
,,,,,,,,,,,,,,,,
E
