&title=2021年の魔法使いたち
&artist=かめりあ
&first=0
&des=DDFR
&des_5=
&lv_5=14+
&inote_5=(155){4},,,{1},{4},,,{24},,,,3x,
4x>1[24:23],{4},,{16},,{24},{8}E7,E6,
{4},,,{8}E6,E7,
{4}1>4[4:3],,,{8}E7,E6,
{4},{8},E5/E3,{4},E4,
{24}6x,5x<8[24:23],{4},,{16},,{24},{8}E3,E4,
{4},,,{8}E4,E3,
8<5[2:1],{4},,{8}4pp8[8:5],3,2,
{1},{16}2,
{8},{16}2,{8},2,{16},2,{8},3/6,{16}B6,4,
{8},4,{16},4,{8},{16}4,{8},{16}4,{8}6,3/E6,
{16}3,{8},{16}3,{8},3,{16},3,{8},5/2qq7v2[4:3],E7,
,E6,,E5,,E5,{4}E7,
{16}7,{8},{16}7,{8},7,{16},7,{8},6/3,{16}B3,5,
{8},5,{16},5,{8},{16}5,{8},{16}5,{8}3,6/E4,
{16}6,{8},{16}6,{8},6,{16},6,{8},4/7pp2v7[4:3],3,
{4},,,2,
{2}6/4qq1[2:1],7qq4[2:1],
1pp4[2:1],4<3[2:1],
5pp8[16:7],2pp5[2:1],
6pp1[16:7],3pp6[2:1],
7h[2:1],{12}5,4,6,4,3,5,
2,3,5,{48}3,{24},{48}4h[16:3]/6<1[4:1],{16},,{24},{8}6,4p7[8:3],,4,
{4}6>3[2:1],,,{8}2,1,
{2}8>6[2:1],{8}6<4[2:1],{4},{8}5,
{4}4<4[8:5],,,{8}7,5q4[8:5],
{4},,,{8}3,4>5[8:5],
{4},,,{8}4,2>5[8:3],
{4},,{2}8p4[2:1],
{16}3,{8},{16}2,{8},1,{16},8,{8},{16}8,7,8,7,
1,6,1,6,2,5,2,5,3,4,3,4,1,2,3,4,
5,6,7,8,1,2,3,4,5,6,7,8,{32}1x,2x,3x,4x,5x,6x,7x,8x,
1x,2x,3x,4x,5x,6x,7x,8x,1x,2x,3x,4x,5x,6x,7x,8x,{4}1xs5[4:1],{16}5x,6x,7x,8x,
1b-6[8:1],{8},{16}2,{8}1,{16}5,5,,4,{8}4,{16}2/6<1[8:1],{8},{16}2,
{8}6,{16}3,2,{8}6h[16:1],6h[16:1],{16}2-5[8:1],4-7[8:1],{8}3,{4},{16}8b-3[8:1],
{8},{16}7,{8}8,{16}4,4,,5,{8}5,{16}7/3>8[8:1],{8},{16}7-4[8:1],
{8}3,{16}6,7,{8}3h[16:1],3h[16:1],{16}4h[8:1]/3v8[8:1],2,1,8p4[8:1],{4}7,
{16}6b<1[8:1],{8},{16}5,{8}6,{16}2,2,,4,{8}4,{16}2/6-1[8:1],{8},{16}2,
{8}6,{16}2,2,{8}6,7h[16:1],{16}7,7,5,5,6,6,4,4,
5/3V17[16:3],{8},{16}7V15[4:1],{8}3,{16}5,5,,6,{8}6,8-6[8:1],1-5[8:1],
8-4[8:1],1-3[8:1],8-6b[8:1],1-5b[8:1],8-4b[8:1],1-3b[8:1],8b,1b,
{16}5b-2[8:1],{8},{16}6,{8}5,{16}1,1,,8,{8}8,{16}6/2>5[8:1],{8},{16}6-1[8:1],
{8}2,{16}7,6,{8}2h[16:1],2h[16:1],{16}6-1[8:1],8-3[8:1],{8}7,{4},{16}4b-7[8:1],
{8},{16}3,{8}4,{16}8,8,,1,{8}1,{16}3/7<4[8:1],{8},{16}3-8[8:1],
{8}7,{16}2,3,{8}7h[16:1],7h[16:1],{16}8h[8:1],6,{8}5,3h[4:1],{16}8,1,
{8}2b>5[8:1],1,8,7,1>4[8:1],8,7x,7x,
8>3[8:1],7,6,5,7>2[8:1],6,5,4,
3/4,{16}3,4,,5,{8}2,3,6/5,4/6,4/7,
6,{16}3,4,,6,{8}5,{16}3,4,{8}3,2/5-2[8:1],6,
7/5,7,6,{16}5,3,,2-5[8:1],{8}4,1/2,6,
7,{16}6,5,,4,{8}7,{16}3,4,2,4,{8}3,4/5,
{4}6<3[8:9],5h[4:5],{1},{32}E5/B4,
E4,E3,E2,E1,E8,E7,E6,{24}4x,3x,2x,1x,8x,7x,
{8}6h[2:1],5,{16}4,4,,4,,3,{8}3,2,3/4,
5h[2:1],4,{16}3,3,,3,,2,{8}2,1,2/4,
3h[2:1],4,{16}5,5,,5,,6,{8}6,7,6/5,
4h[2:1],5,{16}6,6,,6,,7,{8}7,8,7/6,
5,5,4/6,6/4,3/7,7/3,2/8,8/2,
{16}1,8,1,8,2,7,2,7,3,6,3,6,4,5,4,5,
3,4,2,5,4,6,5,7,4,5,3,6,{32}1,2,3,4,5,6,7,8,
1,2,3,4,5,6,7,8,1,2,3,4,5,6,7,8,{2}1/6>3[8:1],
{8}2/1,4>1[8:1],{16}5/7,6,{8}4,{16}7,6,5,4,1-3[8:1],6,3-8[8:1],6,
{8}1,5-2[8:1],{16}7,7,{8}5,8-4[8:1],7-3[8:1],8,7,
2,8/7>1[8:1],{16}6,5,{8}7,{16}2,3,4,5,7v6[8:1],4,6-8[8:1],4,
{8}7,5-1[8:1],{16}2,2,{8}5,{16}3,4,7,6,4,3,6,5,
{8}3/4,1>4[8:1],{16}8/6,6,{8}1,{16}6,7,8,1,4-2[8:1],7,2-5[8:1],7,
{8}4,8-3[8:1],{16}6,6,{8}8,5-1[8:1],6-8[8:1],5,6,
2-6[8:1],4/5,{16}2,4,{8},4h[8:1],{16}3,4,2,5,2,6,
4,6,3,5,{24}3,2,1,8,7,6,{8}5/1b,{16}8,7/5,,4>1[8:1],{8}5/3,
7,5<8[8:1],4,5,{16}2,3,4,5,8-6[8:1],3,6-1[8:1],3,
{8}8,4-7[8:1],{16}2,2,{8}4,1-5[8:1],2-6[8:1],1,2,
7,1/2<8[8:1],{16}3,4,{8}2,{16}7,6,5,4,2v3[8:1],5,3-1[8:1],5,
{8}2,8-4[16:2],{16}7,6,{8}5,{16}6,5,2,3,5,6,3,4,
{8}6/5,8<5[8:1],{16}1/3,3,{8}8,{16}3,2,1,8,5v7[8:1],2,7,2,
{8}5,1>4[8:1],{16}8/6,6,{8}1,{16}6,7,8,1,4-2[8:1],7,2-5[8:1],7,
{8}4,8,{16}7-1[8:1],7,{8},7-5[8:1],5v2[8:1],{4}7,
{16}3,4,5,1,8-3[8:1],7,{8}4/6h[8:1],8-4[8:1],5,{4}8/7h[8:1],
{1}5p4[2:3]/6<3[2:3],
,{16}3,
4,{8}3h[8:1],{16}6,5,{8}6h[8:1],{16}3,4,{8}2h[8:1],{16}6,5,{8}7h[8:1],
{32}1,2,3,4,5,6,7,8,1,2,3,4,5,6,7,8,{2}1s5[4:1],
{4}7h[8:1],{16}7,5,,5,{8}6,3/4,{4}2h[8:1],
{16}3,4,2,5,2,3,{8}4h[8:1],7,6h[16:1],8h[16:1],2h[16:1]/4h[16:1],
3h[2:1],{24}2,1,8,7,6,5,4,,2,{8}1b<6[8:1],3/4,1/2,{16}2,3,
{8}4,{16}5,6,4,7,{8}4,4qq8[4:1],5<7b[8:1],4,5,
{4},{24}8x/7x,1x/6x,2x/5x,3x/4V68[4:1],{16},{48},{8}2-6[8:1],4,{4}2,
{8}1h[8:1],{24}4,3,2,{8}1-4[8:1],6,{2}1/5-7v6-8[4:1],
{8}2h[8:1],8,{16}1,7,,8,{8}2,3/4,1h[16:1]/2h[16:1],4h[16:1]/5h[16:1],
8h[16:1]/7h[16:1],4h[16:1]/5h[16:1],1h[16:1]/2h[16:1],4h[16:1]/5h[16:1],8-5[8:1]/7-4[8:1],4/5-2[8:1],{4},{8}6,
{16}6,5,,4,{8}7h[8:3],{24}8,1,2,3,4,5,{16}6v1[8:1],{8},{16}7,
{8}6,{16}5,5,1-6[8:1],1,{8}3/4,{4}1/2-4[8:1],2/1-5[8:1],
{8}1/2,{16}3,3,,4,{32}E5,E6,E7,E8,{4}2-5[8:1],{8}2/6,7,
8/5,{16}7,5,,6,{8}3,{16}2,3,6,5,3,4,7,6,
{8}5/2-7[4:1],5,5,5,6-1[4:1],6,4,3,
2-7[4:1],5,5,5,6-1[4:1],6,4,3,
3-6[4:1],8,8,8,7-4[4:1],7,1,2,
3-6[4:1],8,8,8,7-4[4:1],7,1,2,
{2}1p8[2:1],8<1[2:1],
{8}8,7,{4}7<2[2:1],{2}1,
{8}1,{16}1,8,,8,{8}7,7/6,6,5/6,{16}5,4,
6,3,6,3,{24},5,4,5,4,5,4x/E8,E1,E2,E3,E4,E5,{32}5x,6x,7x,8x,1x,2x,3x,4x,
{2}5b<8[4:1],1q5[4:1],
8p4[4:1],5>2[4:1],
8b<5[4:1],4p8[4:1],
5q1[4:1],8>3[4:1],
6bh[4:1],{12}6,5,6,3,4,3,
6,5,7,3,4,2,{16}4h[16:3],{8},{16}3,{8}4v1[8:1],2,
{2}4/3h[4:1],{12}3,4,5,6,5,4,
2,3,4,7,6,5,{16}4/3,{8},{16}4,{8}3-8[8:1],2/5,
{16}3,{8},{16}4,{8}3-8[8:1],2/5,{16}3,{8},{16}4,{8}3-8[8:1],2/5,
{16}3,{8},{16}4,{8}3,3/5,1,3/4,6,7,
{16}5/6,{8},{16}5,{8}6-1[8:1],7/4,{16}6,{8},{16}5,{8}6-1[8:1],7/4,
{16}6,{8},{16}5,{8}6-1[8:1],7/4,{16}6,{8},{16}5,{8}6q3[4:1],7/5,
{16}2/6,{8},{16}1,{8},8,{16},7,{8},{16}6,{8},{16}5,
{8},4,{16},3,{8},{16}2,{8},{16}1,{8},8,
{16}1,7,1,7,2,8,2,8,4,6,4,6,3,5,3,5,
1,2,3,4,{24}5,6,7,8,1,2,{32}3,4,5,6,7,8,1,2,3,4,5,6,7,8,1,2,
{8}3<6[4:7],{4},,,{8}E8,
{1}C,
{8}8p1[4:7],{4},,,{8}E3,
{1}E4,
{8}4q5[4:7],{4},,,{8}E7,
{16}E8,{4},{8},{16}E1,{2}E2,
7>2[16:23],E3,
{16}E4,{4},{8},{16}E5,{2}Cfh[2:1],
{8}6,7,{16}6,5,{8}6,4,2,5,3,
6,7,{16}6,5,{8}6,4,2,5,3,
3,2,{16}3,4,{8}3,5,7,4,6,
3,2,{16}3,4,{8}3,5,7,4,6,
{16}3,4,3,4,3,4,3,4,3,4,3,4,3,4,3,4,
2,5,2,5,2,5,2,5,2,5,2,5,2,5,2,5,
1,2,3,4,5,6,7,8,{24}1,2,3,4,5,6,7,8,1,2,3,4,
{32}5,6,7,8,1,2,3,4,5,6,7,8,1,2,3,4,5,6,7,8,1,2,3,4,5,6,7,8,1,2,3,4,
{1}5s1b[4:13],
,,{2},
{16}Cf,,,,2,3,6,5,3/4-7[8:1],3,6,,2-5[8:1]/4,,1,1,2,,6,,5,5,6,6,4,7,8,7,4>2[8:1],6,7<5[8:1],6,4p8[8:1],,7-4[8:1],,4,,,,1,2,7,8,1-6[8:1]/3,3,8,,1/4-1[8:1],,3,,4,,8,7,6pp1[4:1],,45,,6/1<4[4:1],,4,3,2b,,,1b,2b,,3b,,2b/4b,,
{32}6,5,6,5,
{16}7-4[8:1],,4,,7,,8,,1,1,7,7,1,6,5,6,1>3[8:1],7,6<8[8:1],7,1q5<4[8:3],,6-1[8:1],,1,,,,,,,,8,8h[16:3],,,
{24}2,1,8,7,6,5,4/Ch[4:1]f,,,,,,
{32}E5,E6,E7,E8,E1,E2,E3,E4,E5,E6,E7,E8,E1,E2,E3,E4,
{16}7b,,,3b,4b-8[4:1],,2b/5b,,4,,1,,3-8[8:1],,4,4,3,,7,,8,8,7,7,1,6,5,6,1>3[8:1],7,6<8[8:1],7,1q5[8:1],,6-1[8:1],,1,,,,5,4,7,6,2/5-8[8:1],2,4,,4-8[8:1]/5,,3-1[8:1],,4,,3,,8b-4[8:1],,1b-6[8:1]/2b,,8b,,1b,,
{32}4-7[8:1],3,4<6[8:1],3,4,,,,,,
{16},,,2pp5[4:1]/5,,7,,2/5>8[4:1],,6,,8,7,6,,7,6,5,,4/8>5[4:1],,6,,5qq2[4:1]/8,,7,,6,7,8,,7,8,1,,3-1[8:1],4,2,5,3,,7,,7-4[8:1],,18,,37,2,1,8,
{32}5x,6,7,8,1,2,3,4,1x,8,7,6,5,4,3,2,
{16}1/7-1[8:1],7,5-2[8:1]/6,,7,,5,,8bqq4[2:3]*pp4[2:3],,,,
{1},
{16},,,,,,,,,,,,
{16}2,3,6,5,3,4,7,6,2,4,3,5,8,7,4,6,
{32}2,3,4,5,6,7,8,1,2,3,4,5,6,7,8,1,24,,,,35,,,,46,,,,57,,,,
{16}8-4[2:1],,,,,,,,,,,,8-4[4:1],,,,,,5,,6,,7,,
{32}8,7,6,5,4,3,2,1,4/8-3[8:1]*-5[8:1],,,,,,,,
{16}8b,,,,4-1[8:1]*-7[8:1],4,4,4,4b,,,,
{32}8,17,26,35,4s8[4:1],,,,,,,,,,,,
{16},,,,12,,3-8[8:1]/4,,,3/7,,,
{24}7,6,5,4h[8:1],,,
{16}3V51[4:1],4,2,,35,,7,,8,,8h[4:1],,,,4b,3b/7b,2b/6b,,1h[8:1],,4,3,5,2,1v8[8:1],3,8V25[4:1],,17,,5v3[8:1],,,,,,8,,56,,7h[8:1]/8,,4,,7h[8:1]/1,,5,,7h[8:1]/2,,6,,78,,45,,78,,34,,12,,,3/7,,,46,,4>7[4:1],,6,,7,6,5,,4b,,6,5,4v7[8:1],,3,,24,,
{32}2b,3,4,,7b,6,5,,1bs5[4:1],2,3,,,,,,,,,,,,,,
{16}7h[4:1],,,,
{24}8b>4[6:1],1b>5[6:1],2b>6[6:1],3b<7[6:1],,,3h[4:1]/8,,,,,,
{16},3,,3,,3b/8b-4[8:1],6b/5b,,18,,,,3,3,4-7-1-4[2:3],,,,,,,,,,,,,,,,3-5-8-3[2:1],,,,,,,,,,,,,,,,
{16}2-4[8:1]/4,,,,5-1[8:1],,,,2-5[8:1],,,,6,,,,78,6,35,2,18,7,46,3,
{32}21,8,7,6,5,4,3,2,1bx,8bx,7bx,6bx,5bx,4bx,3bx,2bx,
{16}1b<6[8:1],,,,4>1[8:1],,,5,,5,,,4<7[8:1],,,,1b>4[8:1],,1,,5q1[8:1],,,,2>5[8:1],,2,2,E7/E8,,,,8<5[8:1],,,,E4,E3,E2,,1x>4[8:1],,E6,,E7,,E8,,7<4[8:1],,4q8[8:1],,,,,,
{12}2,3,4,3,4,5,
{16}7p3[8:1],,,,2,,,,2>5[8:1],,E6,E7,E8,,1,1,5>2[8:1],,,,8p4[8:1],,,,1-4[8:1],,1-6[8:1],,1,,,,4>8[4:1],,,,6,,,,5,5,5,4,6,,3,,7,,2,1,8,7,6,3,5<4[4:1],,,,,,,,1q5[8:1],,,,7<4[8:1],,,,E3,,E2,,1>4[8:1],,,,E7/E8,,,,6<1[8:1],,3,,2,2,2>5[8:1],,1,,,,8<5[8:1],,,,E5,,E4,,3,4,2,,5,,2,,2,1,2,,E1,E8,E7,E6,3<5[8:1],,,,7-3[8:1],,,,2<3[4:1],,,,,,,,8,7,6,5,4<7[8:1],,,,2,2,2,,3,,4,,5,6,7,8,1,2,3,4,5b-1b[4:1],,,,,,,,,,,,1s5[4:1]/8z4[4:1],,,,,,,,,,,,
{32}4,5,4,5,3-6[8:1],,,,,,,,,,,,
{24}8,7,6,5,4,3,2,1,8,7,6,5,4,3,2,1,8,7,6,5,4,3,2,1,8,7,6,5,4,3,2,1,8,7,6,5,4,3,2,1,8,7,6,5,4,3,2,1,
{32}8,7,6,5,4,3,2,1,8,7,6,5,4,3,2,1,8,7,6,5,4,3,2,1,8,7,6,5,4,3,2,1,
{8}8h[2:1]x,,,,C,,,,
{32}3,4>5[1:2],,,,,,,
{1},,
{16},,,,,,,,6,,5h[8:7],,,,,,,,4,,,,,,,,,,3h[1:1],,,,,,,,,,,,4,,5,,,,,,,,,,,,,,5,,6,,,,,,,,4,,5,,6,,7pp2v7[1:9],,,,,,,,,,2,,3,,4,,,,5,,,,6,,,,5,,,,,,4x,3xp6[1:7],
