&title=Cold Inflation
&artist=kanone vs. Yooh
&first=0.07
&des=DZ
&lv_5=14
&inote_5=(175)
{4},,,,
{4}
4/5<4[2:3],,,,
{4}
,,,,
{4}
1<3[4:3],,,,
{4}
1-5[2:1],,,,
{4}
6h[8:7],
{8}
4,4,,5,,3,
{4}
2h[8:7],
{8}
4,4,,4,,5,
{8}
6h[4:1],,3,3,4,5h[4:1],,4,
{16}
6,7,8,1,2,3,4,5,1,8,7,6,5,4,3,2,
{4}
1/8-4[8:1],1,1/4-7[8:1],1,
{4}
7/1-3[8:1],1/7-5[8:1],7/4-8[8:1],4/3,
{4}
7/1-5[8:1],7,7/5-2[8:1],7,
{4}
2/8-6[8:1],8/2-4[8:1],2/5-1[8:1],5/6,
{4}
2-5[8:1],2/6-1[8:1],6/3-7[8:1],3/5,
{8}
6-3[8:1],6,2-5[8:1],2,7-3[8:1],7,3,2,
{16}
1,5,1,6,1,7,1,8,
{32}
1,2,3,4,5,6,7,8,1,2,3,4,5,6,7,8,
{8}
1/5,2/6,
{24}
7,6,5,2,3,4,
{8}
8w4[8:1],1/7,8b,,
{16}
1-6[8:1],,,,3/1,,,,2-5[8:1],,,5,2,,7-4[8:1],,
{16}
,,4/7,,3,,2,,1/4,,,,6,5,7,,
{16}
4-7[8:1],,,,2/4,,,,1-5[8:1],,,8,1,,6-3[8:1],
{16}
,,,3/6,,,,2,4,2,,1/5,,6,4,7,5,
{16}
8-3[8:1],,,,8/7,,,,8-4[8:1],,,4,8,,3-1[8:1],,
{16}
,,3/4,,,,7,8,7,,1h[8:1],,6h[8:1],,3h[8:1],,
{16}
4-7[8:1],,,3,4,,1,2,3-8[8:1],,,7,3,,6,,
{16}
1,2,3,4,8,7,6,5,1-4[8:1]*-6[8:1],,,1,,,,,
{16}
5/2h[8:1],,,,4/7h[8:1],,,,1/6>3[8:1],,,3,6,,2,,
{16}
1,,5-7[8:1],,8-4[8:1],,5,,8,,,,7,5,6,,
{16}
8/3h[8:1],,,,1/6h[8:1],,,,5/2>5[8:1],,,7,2,,8-4[8:1],,
{16}
4,,8,,3,,6,5,7,,8/4,,3,5,2,4,
{8}
1-5[8:1],1,6,6,
{16}
7,,7,5,7,,4/8-6[8:1],,
{16}
3,,3/8,,3,,3,4,3,,2/5,,3/6,,4/7,,
{16}
1,8,2,7,3,6,4,5,
{24}
3,4,3,4,,,6,5,6,5,,,
{8}
18,18,
{24}
2,3,4,7,6,5,
{16}
1-5[8:1],,2,7,1b,,,,
{16}
6h[4:1],,,,3h[4:1],,,,5-8[8:1],,5,,1-4[8:1],,1,,
{4}
8<4[4:1],4<1[4:1],1-3[12:1]*-5[16:3],,
{4}
2>6[4:1],1h[8:1],8V64[4:1],2h[8:1],
{16}
3h[8:1],,1b,,6h[8:1],,8b,,1,,8b/2,7b/3,4/6b-4[12:1],,,,
{24}
3>1[8:1],,,,,,3/8,7,6,5<8[8:1],,,,,,1/5,2,3,4-8[8:1],,,,,,
{4}
4/7-4[8:1],7/3-7[8:1],3/5w1[8:1],5b,
{24}
7<5[8:1],,,,,,7/4,3,2,1>4[8:1],,,,,,5/1,6,7,8q1[4:1],,,,,,
{4}
1>5[4:1],5>1[32:5]*<8[32:5],,2h[8:1]/7h[8:1],
{8}
1-4[8:1],4,1,6,8-5[8:1],5,8,3,
{8}
2/4,1,5/7,8,7-4[8:1],3v8[8:1],7,3,
{8}
5<1[4:1],,1>5[4:1],2,5<8[16:3],,1,,
{8}
2>5[8:1],1b,7-4[8:1],8b,2,
{16}
1b,2b,3b/5-1[8:1],,,,
{24}
4/5,,,4,,,3/8,7,6,3,,,3,,,7/2,6,5,2,,,2,,,
{8}
8-6[8:1],1-5[8:1],8-4[8:1],1-3[8:1],8,1,7b,2,
{16}
3,5,4,6,5,7,2,4,3,5,4,6,{24}1,8,1,8,{48},{16}2,
{16}
7,,3,4,,6,5,,2,4,,7,5,,1,8,
{4}
2bqq5[4:6]/7b,,,,
{4}
,,,,
{4}
6h[4:2],,
{16}
2,3,4,5,6,7,8,1,
{8}
2h[8:3],,,4h[8:3],,,5,6,
{4}
7pp4[4:6],,4,,
{4}
3,,2,,
{4}
1h[4:2],,
{16}
8,7,6,2,3,4,7,6,
{16}
15,2,3,4,8,7,6,5,3h[4:1]/4-6[12:1],,,,,,,,
{4}
4/6-2[2:1],6,6,6,
{4}
1/7,2/8,1/3,2/4,
{4}
5/3-7[2:1],3,3,3,
{4}
8/2,7/1,8/6,
{8}
7/5,5,
{8}
6-1[8:1],6,2,2,3-6[8:1],3,8,8,
{8}
7-4[8:1],7,1,1,8-4[8:1],8,6,6,
{16}
3,5,4,5,2,6,4,6,
{32}
1b,2,3,4,5,,,,8b,7,6,5,4,,,,
{4}
1b-7[12:1],2b-6[8:1],3b-5[12:1],8b,
{16}
7-4[8:1],,,1,7,,3,,2>5[8:1],1,,,
{16}
1,8,7,6,
{16}
4-8[8:1],,,7,4,,6,,5,,17,,3,4,2,4,
{16}
3,,6,5,7,,3,4,2,,7,5,8,,2,4,
{16}
1-5[8:1],8,,,1-3[12:1]/7,,,6,1-5[8:1],,7,,1,8,7,6,
{16}
4-7[8:1],,,3,4,,3,2,1-6[8:1],,,2,1,,2,3,
{16}
4/7<4[8:1],,8,1,7,,3,,2,8,3,4,1,7,5,6,
{16}
3,4,2,2,6,5,7,7,1,8,2,8,1,7,3,5,
{16}
1b,2,3/7h,4,5/1b,8,7/3h,6,
{24}
5/2b,3,4,7b,6,5,
{16}
1b-5[8:1],8,2,7,
{16}
1b,,,6,3-1[12:1],,4,5,3b,6h[16:3],,,8,7,1,6,
{16}
8b-4[8:1],,,2,8-6[12:1],,1,,8b,,2,,3,5,4,6,
{16}
5b,,7,8,6,,3,4,2,,6,5,8,,3,4,
{16}
1b<6[8:1],6,,,5/1>4[8:1],,,4,1b,,6,,7-4[8:1],4,8,5,
{16}
7b-1[12:1],,,2,7,,5,4,3b-8[8:1],,,5,3,,7,6,
{16}
5b/1b,,2,3,4/6,,8,,2b,1,3,5,4,6,8,7,
{16}
1b,1,5,5,3,3,7,7,4,6,2,8,3,5,1,7,
{16}
2b/6,,,,1/8,,,5/7,,,2/4,,
{16}
1-5[8:1],7,3,5q7[16:45],
{1}
1bq3[4:11]*q3[4:11],
