&title=比翼の羽根
&artist=eufonius
&first=0
&des=luvlily
&lv_5=12
&inote_5=(148){1},
{16}3,,,,,,5,,,,,,,,2,,
{16},,,,,,7,,,,,,,,,,
{16}2,,1,,7,,6h[4:1],,,,2,,3,,4>7[1:1],,
{16},,,,,,,,,,,,,,6,5,
{16}4h[1:1],,,,,,,,,,,,,,,,
{16}5<5[8:6],,,,,,,,,,,,,,,,
{16}7h[8:7],,,,,,,,,,,,,,1,,
{16}1h[8:7],,,,,,,,,,,,,,5,,
{16}5h[8:7],,,,,,,,,,,,,,3,,
{16}2h[8:7],,,,,,,,,,,,,,8,,
{16}7h[8:7],,,,,,,,,,,,,,8,,
{16}1h[8:7],,,,,,,,,,,,,,5,,
{16}26,,,,37,,37,,,,64,,,,5,,
{16}1b/7b,,,,2,,4b/6b,,,,81,,3b/6b,,,,
{16}3>6[32:17]/5,,,,5,,,,5,,,,5,,,,
{16}6<3[32:17]/5,,,,5,,,,5,,,,5,,,,
{16}2p7[32:17]/5,,,,5,,,,5,,,,5,,,,
{16}7q2[32:17]/5,,,,5,,,,5,,,,5,,,,
{16}3/6pp1[32:16],,,,3,,,,3,,,,3,,,,
{16}8/2pp5[32:16],,,,7,,,,7,,,,7,,,,
{16}4-8[8:1]/6,,,,4,,6-2[8:1],,,,6,,8^3[8:1],,,,
{16}8^5[8:1],,,,8-4[8:1],,,,8,,,,26,,,,
{16}7-5[8:1],,5-1[8:1],,7,,3h[4:1],,,,8,,7,,6^3[16:3]/3,,
{16},,7,,8,,1,,2^5[32:5],,1,,8,,7,,
{16}6,,75,,48,,3^8[8:1]/7^4[8:1],,,,3bpp5[8:1]/7bpp1[8:1],,,,,,
{16},,8^3[32:5],,7,,6,,5,,4^7[32:4],,3,,2,,
{16},,18,,2-5[8:1]/7,,2,,6-1[8:1],,6,,3-8[8:1],,3,,
{16}7-4[8:1],,7,,3,,3,,45,,36,,27,,1w5[8:3]/8,,
{16},,,,,,,,,,,,1,2,3,4,
{16}5>1[32:6]/6,,,,5,,8^5[8:1],,,,8^3[8:1],,,,8,,
{16}5<1[16:3],,,,5,,2^5[8:1],,,,2,,8,7,6,5,
{16}4q2[16:3],,,,42,,3^6[8:1]*^8[8:1],,,,3,,,,2-6[8:1],,
{16}6-2[8:1],,2,,7,,8w4[8:1],,,,8,,,,2^5[32:4]/6,,
{16},,2,,6^1[32:4],,,,6,,2,,3,,4/8-4[8:1],,
{16},,3-7[8:1]/8,,,,6-2[8:1]/3,,,,1-5[8:1]/6,,,,7/1,,
{16}6q3[16:3],,,,6,,1>5[16:3]*<5[16:3],,,,1,,,,,,
{16}2b/6b,,3b/7b,,4b/8b,,5b>1[16:3]/1b,,,,5,,8,7,6,5,
{16}4<8[32:6],,,,4,,1^4[8:1],,,,1^6[8:1],,,,1,,
{16}5>1[32:6],,,,5,,6^1[16:3],,,,6,,2,3,4,5,
{16}6>8[4:1],,,,86,,7w3[8:1],,,,7,,,,1v4[8:1],,
{16}5V71[16:3],,1,,5,,2-5[8:1],,,,2/8w4[8:1],,,,8,,
{16},,26,,4^1[8:1]*^7[8:1]/8,,,,4,,,,8,,17,,
{16}2b/6b,,,,15,26,3b/7b,,,,48,37,26,15,4b/8b-4[8:1],,
{16},,18,,2,,4,,6-2[8:1],,8,,26,,4,,
{16}8,7,6,5,4,3,2-6[8:1],,,,2/8qq2[2:1]*>4[32:6],,,,8b,,
{16},,,,,,,,,,35,,35,,2q7[8:3]/6q3[8:3],,
{16},,,,,,,,,,,,1,,26,,
{16}3-7[8:1],,7,,3,,5,,6q2[32:5],,8,,6,,3,,
{16}4>8[32:5],,1,,4,,7,,5pp4[32:8],,1,,5,,3,,
{16}1-4[8:1],,2,,6-1[8:1],,7,,3^6[8:1],,2,,8v3[8:1],,1,,
{16}4>8[8:1],,5,,7p4[32:10],,6,,,,8,,1,,2,,
{16}3b>7[32:5]/5b,,,,37,,5<1[32:5],,,,45,,2V48[32:7],,,,
{16}12,,,,7,6,5v7[8:1]/1v3[8:1],,,,15,,,,2b/6b,,
{16},,15,,1qq8[2:3]/5qq4[2:3],,
{16},,,,,,,,,,,,,,,,E
