&title=Crazy Circle
&artist=みきとP feat. FantasticYouth
&first=0
&des=B(@A@)D
&clock_count=4
&lv_6=13+
&inote_6=(145){1},
{8}5/4h[4:3],,6-1[8:1],6,,,1,,
{8}4/5h[4:3],,3-8[8:1],3,,,8,,
5/6,7,5/6,7,5/6<1[8:1],5/6h[4:1],,,
4/3,2,4/3,2,4q8[8:1]/3,4/3,,1x,
4/7,6,5/3,2,1-5[32:5]/8,7,6,,
4>8[16:3],,8,7p3[32:5],,1,1,,
{16}2/4,,3,5,4>1[8:1],,4,,8<5[8:1],,8,,,,4,,
{8}3/5,4/6,2/5,4/7,1>5[16:3]/5<1[16:3],4/8,,,
,3,7,1<5[8:1],5>1[8:1],,Cf,,
{16}7/8,,1/6,,2,5,,4/3h[4:1],,,8,8,2,7,1,6,
8>3[16:3],,,5,5,,6,,7h[4:1],,4b,,1h[4:1],,4b,,
6,,4/7,,3,5,,1/8,,2/7,,6,3,7,4,8,
5>2[16:3],,,7,7,,6,,5w1b[32:5],,,,A5f,,,,
{8}3,4,2/5,4,3,4,2/5,4,
{16}3h[8:1],,,2h[8:1]/4h[8:1],,,1h[8:1]/5h[8:1],,,,8,,8,,7,,
{8}5/6,3,4/5,2,3/4,1,4/5,2,
{16}5/6p2[8:1],,,2>8[4:1],,,1h[4:1],,,,,,2,,3,,
7<4[8:1]/4-1[8:1],,,,7b/4b,,,,8-4[8:1],7,1,,2/8,,3,,
7,4,6,5,7-3[8:1],,3-7[8:1],,7,,1h[4:1],,,,8,2,
3/7,,6,5,6h[8:1],,3,4,2h[8:1],,8h[8:1],,6h[8:1],,4h[2:1],,
E2/B2f/A2,,,A6/B6f/E7,,,B8f/E1/E8/A8/D1/D8,,,,3/5,,2-6[8:1]/6,,,,
2/7-3[8:1],,,,7/1-5[8:1],,,,1/8-4[8:1],,,,8/4,,3,3,
{24}E8,E7,E6,E2,E3,E4,{32}B8,B7,B6,B5,B1,B2,B3,B4,{16}C,,1,8,2/7,,,,
3v8q5[32:9],,,8,,,6h[4:1],,,,4,,2/8,,,,
7v4q1[32:9],,,4,,,2h[4:1],,,,8,,4/6-4[32:3],,,,
6/3,,,2-5[32:3],,,1/2,,,,8-4[8:1],,,,7/8,,
6-2[8:1],,,1,,,3,,1/4-8[8:1],,,7,,,6,,
1/5,,,3-1v4[4:1]/7-5v8[4:1],,,3/7,,,,,,,,3/7,,
2v4[8:1]/6v8[8:1],,,,2x/6x,,,3hx[16:13]/7hx[16:13],,,,,,,,,
{4},,4w8b[8:1],,
{8}2-6[8:1],3/1,2x,,8-4[8:1],7/1,8x,,
{8}1w5[8:1],2/8,1b,,7V51[16:3],8,1,2,
3-8[8:1],4,5-2[8:1],6,7qq8[4:1],7,3qq2-4<5b[4:1],,
3,,8x,,7/1,6,5/4,3,
{16}2/8,,3,4,,6,5,,7/4-8[8:1],,2x,,,,2x,,
{16}7/1,,6,5,,3,4,,2-5[8:1]/5-1[8:1],,,,2<3[32:7]/5,,,,
{8}2b/6hb[2:1],,{32}2x,1x,8x,7x,,5x,4x,3x,{8}2hx[2:1],7,8,1h[4:1],
{8},3,2/4,3/5,4/6>1[16:3],7,8b,,
{8}7-3[8:1],6/8,7x,,1-5[8:1],2/8,1x,,
{8}8w4[8:1],7/1,8b,,2V48[16:3],1,8,7,
6-1[8:1],5,4>1[8:1],3,7v4[8:1],6,7/3>5[16:3],,
3/C,,8b,,2/5,4/6,3/5,4/7,
{16}6/2-5[8:1],,,5-1[8:1],,,7,,8V64[16:3],,,4-8[8:1],,,3,,
{4}2-6[8:1],2/1-5[8:1],1/8-4[8:1],8/7<1[2:1],
Ch[4:3],,,8x,
{16}1,1,5,5,3,3,7,7,2,2,1,,3/8,,6,6,
{16}4,5,3h[4:1],,E2/B2,,E8/B7,,6,6,5,7h[16:3],E4/B4,,E2/B1,,
3,4,2,2h[16:3],B3/E4,,B6/E6,,7h[8:1],,8,6,B1/B8,,B4/B5,,
2>5[8:1],8,1,,2/6,,,,7v4[8:1],8,6,8,7,,,,
1-5[8:1],,6,6,1,,7,,8w4b[8:1],,1/7,,8b>7[16:5],,,,
{8}2h[4:1],,,,1-5[8:1]/8-4[8:1],2/7,1b/8b,,
{16}2,5,3,6,4-2b[32:3],,7V51b[4:1],,4b-8b[8:1],,7b,,4b,,,,
{16}2h[8:1],,4,3,8h[8:1],,5,6,1,7,2,6,3,5,4,,
{16}1hx[8:1]/6hx[8:1],,,3hx[8:1]/8hx[8:1],,,2xV48[4:1]/7xV51[4:1],,,,,,,,,,
{16}2b-6[8:1]/7b,,,,2/7-3[8:1],,,,7/1-5[8:1],,,,1/5,,6,6,
{24}2x,3x,4x,8x,7x,6x,{32}1x,2x,3x,4x,1x,8x,7x,6x,{16}C,,5,4,3/6,,,,
2qq5[32:9],,,8,,,6h[4:1],,,,4,,2/8,,,,
7qq1[32:9],,,1,,,3h[4:1],,,,8,,6/5-3[32:3],,,,
5/3,,,2-6[32:3],,,1/2,,,,8-4[8:1],,,,7/8,,
6-2[8:1],,,1,,,3,,1/4-8[8:1],,,7,,,6,,
1/5,,,3qq8[4:1]/7qq4[4:1],,,3/7,,,,,,,,1/5,,
3v1[8:1]/7v5[8:1],,,,3x/7x,,,2hx[16:7]/6hx[16:7],,,,,,,,,
{4}1h[8:1]/5h[8:1],2h[8:1]/6h[8:1],3h[8:1]/7h[8:1],4h[8:1]/8h[8:1],
{8}1/5,2/6,3/7,8/4,1/5,2/6,3/7,4/8,
{32}5x,6,7,8,1,2,3,4,5,6,7,8,1,2,3,4,{48}5x,6,7,8,1,2,3,4,5,6,7,8,{4}1b/Cf,
{8}2-6[8:1],3/1,2x,,8-4[8:1],7/1,8x,,
{8}1w5[8:1],2/8,1b,,7V51[16:3],8,1,2,
3-8[8:1],4,5-2[8:1],6,7qq8[4:1],7,3qq2-4<5b[4:1],,
3,,8x,,7/1,6,5/4,3,
{16}2/8,,3,4,,6,5,,7/4-8[8:1],,2x,,,,2x,,
{16}7/1,,6,4,,3,5,,2v5[8:1]/6-1[8:1],,,,2/6,,,,
{32}7b/3hb[2:1],6,5,4,,2,1,8,7,6,5,4,,2,1,8,{8}7h[2:1],2,1,8h[4:1],
{8},6,7/5,6/4,5/3<8[16:3],2,1b,,
{32}2h[8:1],,,,1,8,7,6,{8}5b/1b,,2-6[8:1],1/3,2x,,
{8}8w4[8:1],7/1,8b,,2pp1[16:3],1,8,7,
6-1[8:1],5,4>1[8:1],3,7v4[8:1],6,7/3>5[16:3],,
3/8h[4:1],,,,2/5,4/6,3/5,4/7,
{16}6/2>5[8:1],,,5p1[8:1],,,7,,8<4[8:1],,,4v7[8:1],,,3,,
{4}2-6[8:1],2/8-4[8:1],8/6-2[8:1],6/4w8b[8:1],
{8},,2b/6b,,7-3[8:1],6/8,7x,,
{8}1w5[8:1],2/8,1b,,7qq8[16:3],8,1,2,
3-8[8:1],4,5-1[8:1],6,7v4[8:1],8,7/3>5[16:3],,
3/C,,8b,,7/4,5/3,6/4,5/2,
{16}3/7-4[8:1],,,4-8[8:1],,,2,,1V35[16:3],,,5-1[8:1],,,6,,
{4}7-3[8:1],7/8-4[8:1],8/1-5[8:1],1/2,
6p4[4:1],4>6[4:1],1,C,
{16}3,4,3,,2/5,,6,5,6,,4/7,,2-6[8:1],8,4,6,
{4}2b/Cf,,,,
{8}5/6,7,5/6,7,5/6<1[8:1],5/6h[4:1],,,
{4}2h[4:3],4,,4,
{16}3/5,,1,8,2q6[8:1],,6q2[8:1],,2,,,,C,,,,
{4}7h[4:3],5,,5,
{8}4/3,2,4/3,2,4q8[8:1]/3,4/3,,1x,
{4}1h[4:3],6,,Ch[4:1],
{8},3,7,1<5[8:1],5>1[8:1],,Cf,,
{1},,
E
