&title=東京シュノーケル (feat. nicamoq)
&artist=Yunomi
&first=0.15
&des=Kattobi !
&lv_5=13+
&inote_5=(160)
{8}
8qq5[45.5#19:2],,,,6qq3[29#30:2],,,8,,,,,4qq1[53#6:1],,,6,,,,,,,,,2,3,4,5-1b[100#7:1],,6,5,,8<5[80#5:1],,,,5>2[100#9:2],,,2<7[100#8:3],,,,,7<7[100#5:3]*>7[100#5:3],,,7x,,,,,,,,,1v3[64#20:1],2,8v6[80#15:1],7,,1b,8b,,B3f/E3/E4,,1pp5[50#18:3],3,,8,2,7,1,6,5pp8[110#11:3],,,4qq1[31.8#64:4],3,2,1,1qq6[53#19:2],4,5,6,7/2,8/3,1/4,,,,7p2[80#10:1]/2h[4:1],,1h[8:1],8h[14:5],7b,,1/3,2/4p8[80#8:1],3/5,6/4,7,8v2b[5:1],,,,,5/1qq5[80#7:1],6/2,7/3,8/4,1/5,,,8v3[10:1],1<6[105#15:1],8>5b[80#4:1],1hxb[10:1],,8hxb[8:7],,,,,,,,
{16}
Cf,B4f,A4f,,
{8}
,B4/6xv8[2:1],B4/7xv2b[64#5:1],B4,B4,B4,B4,E5,E5,E5,E5,E5,E5/1xv7[106#8:1],E5/8xv6[80#13:2],E5/7xpp2b[53#12:2],E4,E4,E4,E4,E4,E4,E4,E4,B4,B4,B4,B4/1xqq8[2:1],B4/8xV26b[64#7:3],B4,B4,B4,E4,E4,E4,E4,E4,E4,E4,E4,E5,E5,E5,E5/7xv1[106#4:1],E5/7x,E5/8xpp2b[80#10:7],E5,E5,B4,B4,B4,B4,B4,B4,B4,B4,E4,E4,E4,E4,E4,
{16}
A1,D1,A8,D8,A7,D7,
{4}
A6h[2:3]/1-3[10:1],E7/1-4[10:1],E7/1-5[10:1],E7/1-3[10:1],E7/1-4[10:1],E7/1-5[10:1],E7/1,1-4[10:1]/5-8[10:1],1-6[10:1]/5-2[10:1],1>4[10:1]/5<8[10:1],1v6[10:1]/5v2[10:1],1>4[10:1]*<6[10:1]/5,1w5[10:1],1,
{8}
,7,8,1,2x-5[300#5:1],2x,4x-7[300#5:1],4x,6x-1[300#5:1],6x,8x-3[300#5:1],8x,2x-5[300#5:1],2x,4x-7[300#5:1],4x,6x-1[300#5:1],6x,
{16}
8x,1x,2x,3x,4x,5x,6x,7x,
{32}
8x,1x,2x,3x,4x,5x,6x,7x,8x,1x,2x,3x,4x,5x,6x,7x,8x,1x,2x,3x,4x,5x,6x,7x,
{8}
8x,,E2,,E1,,E8h[4:1]/1V35b[4:1],,
{8}
B8f/1,B1f,E2fh[3:2],,5V71b[80#8:1],,,,B2f,B3f,E4fh[2:1],,1V35b[80#8:1],,,
{32}
,,,1x,
{8}
1x/B4f,B5f,E6fh[2:1],,5V71V35b[2:1],,,A7f,A1f,A3f,A5f,,
{16}
5<1b[2:1]*>1b[2:1],A8f/A2,A7/A3f,A6f/A4,
{8}
A5f,A6/A4f,A7f/A3,A8/A2f,A1f,,1pp4>8b[5:3]/E8fh[2:1],,,,B7f,B6f,E6f,,8v5<8b[2:1]/E4fh[4:1],,,,B3f,B2f,E2fh[2:1],,8<5qq3q8b[1:1],,,,A1f,A2f,A3f,A4fh[5:2],,,,,E6h[2:1]/8>4[80#14:1],,,,
{32}
8/B6,B7,E8h[6:5],,,,,,4V28[60#30:1],,,,,,,,4,,,,,,,,,,,,,B7,B6,E6h[21:20],,,,,,,,,8-3>2-5[80#8:1],,,,,,,,8,,,,,,,,,,,,,,B6,B7,E8h[21:20],,,,,,,,5>3-8[80#8:1],,,,,,,,5,,,,,,,,,,,,,,B7,B6,E6h[4:1],,,,,,,,1>5[60#16:1]/E7h[7:5],,,,,,,,5b,,,,,,,,,,,,,,,,B7,B8,E1h[22:20],,,,,,5<1[60#16:1],,,,,,,,1b,,,,,,,,,,,,,,,,B1,B2,E3h[22:20],,,,,,1<7qq5[65#10:1],,,,,,,,5b,,,,,,,,,,,,,,,,B3,B4,E5,,4x>1[40#16:1],,,,,,,,1x>5b[40#9:2],,,,,,,,,,,,,,,,,,,,,,,,,E6,B6,B7,,,,,,B8,B1,E2,
{4}
,,,,,,
{8}
B5,,,E6,,,,,,,,,C,,,,,,,,2-7-4-1-6-3-8-5-2[4:29],,5,6h[4:1],,7,5,4,3h[4:1],2-7-4b[3:2],1h[4:3],2,,,,,,,8,5,8,4-1b[80#8:1],8h[8:5],3,,4,,7h[4:1],,1-6b[8:3],6-3b[80#12:3],1,,,,,,,,6h[4:3],,3-8b[53#14:1],,2h[4:3],,5,4,3,,7,8-5b[108#6:1],5-2b[80#32:10],4h[1:1],,,,,,,,,
{32}
D2,A1,D1,A8,D8,A7,D7,A6,D6h[1:1],,,,
{8}
2,2,2,2,2,2,2,
{32}
A6/2x,D7,A7/3x,D8,
{8}
A8h[6:5]/4x,4,4,4,4,4,4,
{32}
4x/D8,A7,D7/3x,A6,
{8}
D6h[7:5]/2x,2,2,2,2,2,2>6[250#4:1]/6<2[250#4:1],2z6[190#5:1]/6z2[190#5:1],,,,,,7>5[8:9],6,5,6xv8[80#8:1],7x,8x<7v2b[80#8:1],,,,,,,8-6[300#5:1],8-4[300#5:1],8-2[300#5:1],8<1b[300#9:21],,,,,,,
{16}
A5,D6,A6,D7,A7,D8,A8,D1,A1,,,,E2,,E3,,,,E4,,
{8}
5,6,7,B1/B2,8-5[10:1],B4/B3,8-2b[10:1],B1/B2,8-5[10:1],B4/B3,8-2b[10:1],B1/B2,8-5[10:1],B4/B3,8-2b[10:1],B1/B2,8-5[10:1],B4/B3,8-2b[10:1],B1/B2,8-5[10:1],4-1[10:1],8-6[10:1],4-2[10:1],8-4[10:1],4-8b[10:1],,,,,,,4,3,2,1,8,7,6,5,4,3,2,1,8,7,6,5,4,3,2,
{32}
1b,8,7,6,5,4,3,2,1,8,7,6,5,4,3,2,1,8,7,6,5,4,3,2,1,8,7,6,5,4,3,2,1,,,,,,,,
{4}
B5,B4,E4h[4:3]/2V86V82[5:3],,,
{32}
B4,B5,E6h[10:9],,,,,,3V17V13b[5:3],,,,,,,,3,,,,,,,,,,,,,,,,B6,B7,E8h[10:9],,,,,,6V42V46[5:3],,,,,,,,6,,,,,,,,,,,,,,,,B8,B1,E2h[10:9],,,,,,8V64V68b[5:3],,,,,,,,8,,,,,,,,,,,,,,,,B2,B3,E4,,,,,,8<4[3:1],,,,,,,,4>8b[100#10:1],,,,,,,,,,,,,,,A5,A6,A7,A8h[10:9],,,,,,2q3[3:1],,,,,,,,3>1b[100#10:1],,,,,,,,,,,,,,,,D8,A7,D7h[10:9],,,,,,8v2<1[3:1],,,,,,,,1<7b[100#10:1],,,,,,,,,,,,,,,,A6,D6,A5h[10:9],,,,,,3>8[60#15:1],,,,,,,,4hb[2:1],,,,,,,,,,,,,,,,A6,A7,A8,,,,,,,,,,,,,,
{8}
6-2b[80#9:1],3-7b[107#7:1],5v8[80#18:1],4v1[80#17:1],6/3,,5b,4b,,8>4[2:1],7,6,5,4-8[10:5],8,,,,,,,8-4[11:5]/6-2[11:5],7-3[53#25:1],8/6,,,,,
{32}
7,B7,C,B3,,,,,
{8}
,,3v8[78#20:1],2v5[63#25:1],3,4v7b[78#20:1],3,,,,,5h[15:1]/1,5h[15:1]/2,5h[15:1]/3,5h[15:1]/4,6p3q4[4:3],7h[15:1],8h[4:3],,,,,,E8,E7,E6h[1:1],,,,,,3,2,1bq4[6:3],,,,,
{32}
B6,B7,E8h[10:9],,,,,,5q4-1b[5:3],,,,,,,,4b,,,,,,,,,,,,,,,,B7,B6,E6h[10:9],,,,,,8>2pp4[5:3],,,,,,,,2b,,,,,,,,,,,,,,,,B6,B7,E8h[3:1],,,,,,,,,,,,,,
{8}
B8,E1,B1,E2h[10:21],,8q5b[5:3],,,,,,,,,4s8[5:3],,4b,,,,
{32}
B2,B3,E4h[10:9],,,,,,7-2p5b[5:3],,,,,,,,7,,,,,,,,,,,,,,,,B3,B2,E2[10:9],,,,,,,,,,,,,,1x-5[10:1],2x,3x,,8x-4[10:1],7x,6x,,1xpp3[5:1],,,,8xqq6[5:1],,,,,,,,,,,,,,,,,,,,4qq1[10:3]/E6h[20:9],,,,,,,,,,,,,,,,
B6,B7,E8h[10:9],,,,,,8,,,,,,,,8V24[3:1],,,,,,,,,,,,,,,,B7,B6,E6h[6:1],
,,,,,4v7[60#16:1]*v1[60#16:1],,,,,,,,
{8}
7/1,,,,C,,8p1b[60#16:1],,1q8b[96#10:1],,,,C,,1-4b[60#16:1],,5-8-4b[96#10:1],,,,A8,,
5<1b[60#16:1],,1>5b[96#10:1],,,,A7/A3,,4-2-5b[60#16:1],,6-8-5b[96#10:1],,,,A8/A2,,
4-8b[60#16:1],,8-4b[96#10:1],,,,C,,,,E5,B5,E6,B4,E4,B6,E7,B3,E3,B7,E8,B2,E2,B8,B1,E1/2w6[5:12],
