&title=ももいろの鍵
&artist=いよわ
&first=0.048
&des=Kurage
&lv_5=13+
&inote_5=(165){4}
,,,,
{16}45,,,3,4,,2,,{8}2pp4[32:5]/4,,,6,
{16}6,,,7,5,,6,,{8}6v5[32:5]/4,,,2,
{8}2-6[8:1],,5-8[8:1],,4h[4:1],,6<3[32:9],6,
2,,,,4<6[8:1]/5>3[8:1],,,,
{16}54,,,6,5,,7,,{8}7-5[8:1]/5,,,3,
{16}3,,,2,4,,3,,{8}3<5[8:1]/5,,,7,
{16}7-3[8:1],,,4,{4}4>1[8:1]*<6[8:1],,{8}7<2[8:6]/8<2[48:35],6,
,,,,,,,1b,
{12}1b,,5,5,6,7,1,2,3,7,8,1,5,,3,3,2,1,7,6,5,1,8,7,
{4}4p6[4:1],,5q3[4:1],,{32}5,4w8[4:1],,,,,,,{4},,,
{8}2h[8:1]/6,,2h[8:1]/4-6[8:1],5,2h[8:1],,2h[8:1],8,
2h[8:1]/8,,5-8[8:1]/2h[8:1],6,2h[8:1],,2h[8:1],1,
2/8>3[8:1],,6/8<5[8:1],,8-4[8:1]/4,,6,6,
5h[8:1]/7h[8:1],,4h[8:1]/5h[8:1],,3v8[8:1]/5v8[8:1],4,,,
1/7h[8:1],,3-5[8:1]/7h[8:1],4,7h[8:1],,7h[8:1],6,
6/7h[8:1],,7h[8:1]/8>3[8:1],1,7h[8:1],,7h[8:1],5,
5-8[8:1]/7,,4-1[8:1]/5,,2<7[8:1]/4,,2/7pp2[16:7],,
5h[8:1],,5h[8:1],,{16}4z8[32:9],,8,,,2,,,
{8}4b,,1q5[8:1]/8p4[8:1],,,,36,4,
5h[8:1]/7,,5h[8:1]/4-1[8:1],3,6h[8:1],,6h[8:1],8,
7/1<6[8:1],,1>4[8:1]/3,,1-5[8:1]/5,,3,3,
2h[8:1]/4h[8:1],,4h[8:1]/5h[8:1],,4-8[8:1]/6-2[8:1],5,,,
1h[8:1]/2,,1h[8:1]/8-6[8:1],7,2h[8:1],,2h[8:1],4,
4h[8:1]/3,,4h[8:1]/5-1[8:1],6,3h[8:1],,3h[8:1],4,
2/4-1[8:1],,4/5-8[8:1],,5/7>2[8:1],,2q7[32:7]/7,,
4h[8:1],,4h[8:1],5,3-5[32:3]/6-4[32:3],,36,,
{12}4,4,5,,4,4,5h[12:4],,4h[12:2],,,,
3,3,4,2,,3,3h[12:4],,4h[12:2],,,,
6,6,5,7,,6,6h[12:3],,,5h[12:3],,,
4V68[4:1],,,8V24[4:1],,,4,,,,,,
5,4,6,3,4,2,5,4,4,3-6[8:1],,,
1,1,,8,8,1,2-4[8:1]/7-5[8:1],,18,,,,
4,5,5,6,5,5,4-8[8:1],,,8w4[8:1],,,8<1[8:4]*>7[8:4],,,,,,,,,,,,
{8}
8b<5[8:1]/1,,8/4-8[8:1],3,2-5[8:1],3,2/4h[8:2],,
6-2[8:1],,2<7[8:1]/6,3,4-1[8:1],5,4/6h[8:2],,
2-6[8:1],,8>3[8:1]/2,7,5-2[8:1],6-1[8:1],5,6,
3q6[16:5],,7,7,8w4[8:1],,,,
{12}
6b/2b,2h[12:1],5,3h[12:1],4,4h[12:1],3,5h[12:1],2,6h[12:1],1,1,
4,8h[12:1],5,7h[12:1],6,6h[12:1],7,5h[12:1],8,4h[12:1],1,1,
{8}
6b<1[8:1],7,4qq5[16:5],3,6pp4[32:11],7,,,
{16}3-7[32:3],,,1-6[32:3]*-4[32:3],,,1,,,,7b/3b,,,,1,,
{8}
1b>4[8:1]/8,,1/5-1[8:1],6,7-4[8:1],6,7/5h[8:2],,
3-7[8:1],,7>2[8:1]/3,6,5-8[8:1],4,5/3h[8:2],,
7-3[8:1],,1<6[8:1]/7,2,4-7[8:1],3-8[8:1],4,3,
6p3[16:5],,2,2,1w5[8:1],,,,
{12}
3b/7b,7h[12:1],4,6h[12:1],5,5h[12:1],6,4h[12:1],7,3h[12:1],8,8,
5,1h[12:1],4,2h[12:1],3,3h[12:1],2,4h[12:1],1,5h[12:1],8,8,
{8}3b>8[8:1],2,6p5[8:2],7,5>7[8:2],{16},3,{4}3,
5pp6[8:3]*qq4[8:3],,,{16}5,5,5,5,
{16}5h[8:1],,,3h[8:1]`4h[8:1],,,5`7,,3,24,{24},,3,{8}48,6,
{16}5h[8:1]`7h[8:1],,,4h[8:1]`5h[8:1],,,2`4,,{4}3-6[8:1]/6-3[8:1],36,
{16}2h[8:1],,4,3,6h[8:1],,5,7,1h[8:1],,5,,3`7h[8:1],,1,,
{32}26,3,{16}4h[16:3],,,5,,65,,7,,3,4,15,,,,
{24}78,1,2,,45,6,7,,12,3,4,,{16}6,5/7h[16:3],,,{12}8,7,,
{24}21,8,7,,54,3,2,,87,6,5,,{16}3,4/2h[16:3],,,{12}1,2,,
{12}7b/1b,,5h[12:1]/7,6,3h[12:1]/5,,3b/1b,,1h[12:1]/7,6,5/7h[12:1],,
1b/5b,1,7h[12:1],3,1h[12:1],5,2b/6b,2,4h[12:1],6,8h[12:1],2,
{4}6-4[32:7],,2-5[32:7],,6-4[32:7],,3-5[32:7],,
6h[4:1],5h[4:1],4h[4:1],3<6[4:2],,,3,,
8-5[32:9],,1-4[32:9],,6>3[32:9],,2-6[32:9],,
4h[4:4],,5h[4:2],,{8},,3`6,3`6,3`6,3`6,3`6,3`6,
2h[8:1],4h[8:1],6h[8:1],8h[8:1],{16}2,4,6,8,2,4,6,8,
{8}
2b-5[8:1],,6-2[8:1]/2,7,8V24[32:5],7,6h[4:1]/8,,
5p1[32:5],,5/8>3[8:1],7,6v1[8:1],5,4h[4:1]/6,,
7-3[8:1],,1<6[8:1]/7,2,4v7[8:1],3-8[8:1],4,3,
5pp2[8:3],,2,2,1w5[8:1],,,,
{12}
3b/7b,3h[12:1],6,4h[12:1],5,5h[12:1],4,6h[12:1],3,7h[12:1],1,1,
4,8h[12:1],5,7h[12:1],6,6h[12:1],7,5h[12:1],8,4h[12:1],1,1,
{8}7b-3[8:1],8,4>1[8:1],5,6pp4[32:11],7,,,
{16}3-7[32:3],,,1-4[32:3]*-6[32:3],,,1,,,,2b/8b,,,,7,,
{8}
7b-4[8:1]/5,,3-7[8:1]/7,2,1V75[32:5],2,3h[4:1]/1,,
4q8[32:5],,4/1<6[8:1],2,3v8[8:1],4,5h[4:1]/3,,
2-6[8:1],,8>3[8:1]/2,7,5v2[8:1],6-1[8:1],5,6,
4qq7[8:3],,7,7,8w4[8:1],,,,
{12}
6b/2b,6h[12:1],3,5h[12:1],4,4h[12:1],5,3h[12:1],6,2h[12:1],8,8,
5,1h[12:1],4,2h[12:1],3,3h[12:1],2,4h[12:1],1,5h[12:1],8,8,
{8}2b<7[8:1],1,5pp4[4:1],6,4>5[4:1],{16},2,{4}2,
4pp4[8:3]*qq4[8:3],,,{16}4,4,4,4,
{12}4>1[32:7],,,,,,7<4[32:7],,,,,,
2-6[32:7],,,,,,5-8[32:7],,,,,,
1,,,,,,4p5[32:9]/5q4[32:9],,,,,,
