&title=VOCALROCK MANIA ver.2
&artist=Frog96
&first=1.81
&des=南うらい
&lv_5=14
&inote_5=(136)
{1},,
{16}4,,4,,4,,4,,4,,4,,4,6,3,7,
{16}2-6[4:1],,,,,,,,,,5/7,,,3/4,,,
{16}1-4[4:1]/2,,,,,,,,,,2h[8:1],,5,3h[8:1],,6,
{16}5-8[4:1],,,,,,,,,,7h[4:1],,6,5,4,3,
{8}2z6[4:1]/6,,,,,6x/7x,5x/8x,2x/3x,
{16}1-6[4:1]/4-7[4:1],,,,,,,,,,5/8,,,3/6,,2,
{16}4V61[4:1],,,,,,,,,,8h[8:1],,3,1h[8:1],,4,
{16}2V86-4[4:1],,,,,,,,,,2h[16:3],,,4h[16:3],,,
{8}6V42[4:1],,,,,7x,2x/4x,5x/6x,
{8}8,1^6[8:1],,5,4,3,7-4[8:1],2/6,
{16}1-5[8:1],,1,,8-3[8:1],,8,,4h[4:1],,,,1,3,,3,
{8}1,2^7[8:1],3,3,4,5-2[8:1],6,6,
{8}7-4[8:1],3-8[8:1],7-3[8:1],,,1x,2x/4x,5x/6x,
{8}7,8-3[8:1],,4,5,4,6-1[8:1],,
{8}4,3,2-5[8:1],8,7,,4/6,3/7,
{4}2-4[8:1],8-6[8:1],1-5[8:1],7-5[8:1],
{4}1-3[8:1],8qq4[8:3],3-8[8:1],3b,
{8}2/6h[8:3],,,2,1,2,3,4,
{8}5p1[8:1]/6,7,8,,4q8[8:1]/1,2,3,,
{8}1/3h[8:3],,,1,8,7,6,5,
{8}1/4,2/5,3/6,4/7,5^2[8:1]/8^5[8:1],,5-1[8:1],,
{8}5,,4-7[8:1],3,2-5[8:1],1,8-3[8:1],7,
{8}6,6h[8:1],,3/5,3h[8:1]/5h[8:1],,2b/6b,,
{8}1/7-3[8:1],,,1-6[8:1],2,3-8[8:1],4,5,
{8}6-4[8:1],1-3[8:1],6-1[8:1],,,,5,,
{8}2-6[8:1]/8,,,8-3[8:1],7,6^1[8:1],5,4,
{8}3,2,1/8,2/7,8-4[8:1],,3-8[8:1],,
{8}5,6,7-4[8:1],8,1,2,3V14[4:1],4,
{8}5,5h[8:1],,3/7,3h[8:1]/7h[8:1],,A2/A8,,
{16}2/4,,2h[8:1]/4h[8:1],,,,6/8,,6h[8:1],,,,8,1,2,3,
{8}4h[4:3]/6h[4:1],,,7^5[8:1],7,,,3,
{8}5h[4:3]/3h[4:1],,,2^4[8:1],2,,,7,
{8}4h[4:1]/7h[4:1],,,2/5,2h[4:1]/5h[4:1],,,,
{4}7/4h[4:1],3h[4:1],2-4[8:1],6,
{8}4/8,3,2/6,1,1/5,6,3/7,8,
{8}4/8,3,2/6,1,1-5[4:1]/5,,5<1[4:1],,
{8}1>5[4:1],,6,,7h[4:1],,,B2/B6,
{8}B3/B7,,,E4/E8,E3/E7,,1h[4:1],,
{8}5,6,3/7,8,4/8,3,2/6,1,
{8}1/5,6,3/7,8,4/8-4[8:1],,4>8[4:1],,
{8}8<4[4:1],,3,,2h[4:1],,,E4/E8,
{8}E3/E7,,,E2/E6,E3/E7,,4,,
{8}5h[4:1]/7,,6,,2/4h[4:1],,3,4x,
{4}5hx[4:1]/7x,6,2q6[8:1]/4,,
{8}5h[4:1]/7,,6,,2/4,,1,1x,
{8}8xqq8[4:1],,1,2,3,,2/8,,
{8}2/4h[4:1],,3,4,5h[4:1]/7,,6,5x,
{8}2x/4hx[4:1],,3,4,5/7<5[8:1],,4,4,
{8}3h[4:1]/5h[4:1],,,4/7,4h[4:1]/7h[4:1],,,3pp6[8:3]/6,
{8},7,7,,8,,3/7,,
{8}4/6v1[4:1],,4,3,2>5[5:1],,8,7,
{8}6q2[4:1],,5,4,3,,3qq8[8:3]/4,,
{8}4,5,6pp1[8:3],,5,4,3,,
{4}2-6[8:1],2/8-4[8:1],5/8,3h[4:1],
{8}7x<4[4:1],,1,2,3x>8[4:1],,5,6,
{8}7x<4[4:1],,1,2,3,,2-6[8:1]/6,,
{8}2/5<8[8:1],,3/5>2[8:1],,5/7,,2/6,2/6,
{32},,,,3/7,,,,3v8[16:1]/7v4[16:1],,,,,,,,3/7,C1f,,,,,,,1x-5[8:1]/7x,,,,,,,,
{8}1/8,7-3[8:1],6,5/7,4,3,2-6[8:1],1,
{8}2/8-4[8:1],7,1w5[8:1]/8,2,1,,3/7,,
{8}3/8,4,5/7,6,2/5,3,4/8,7h[4:1],
{16},,8,1,2,,8,,B4/B5f/B6,,,,2/8-4[8:1],,,,
{8}1/8,2-6[8:1],3,2/4,5,6,7-3[8:1],8,
{8}1-5[8:1]/7,2,1/7p3[8:1],8,1/7,,2/8-4[8:1],,
{8}3-5[8:1]/8,,3/7-1[8:1],,2-6[8:1]/7,,2/6<4[8:5],7,
{8}8,,5h[4:1],,,5,5h[4:1],,
{8},3/6,4>8-3[8:3]/8<4-7[8:3],,,,,,
{8}2b/6b,,,4/6,4/6,,E5/E6,,
{4}4h[4:1]/5,2>4[8:1],,5/6,
{8}4h[4:1]/7h[4:1],,,4/6,4/6,,E5/E6,,
{8}5/6h[4:1],,7,,7/8,3/4,1/2,5/6,
{8}2bh[4:1]/5bh[4:1],,,3/5,3/5,,E4/E5,,
{8}4h[4:1]/5,,3h[4:1],,2h[4:1],,,2/4,
{8}2h[4:1]/4h[4:1],,,5/7,5h[4:1]/7h[4:1],,,2,
{8}2q6[4:1],,6bq2b[4:1],,2,2,6,6,
{4}5/7^4[4:1],4-7[4:1],3h[4:1],,
{16}2,4,3,,6,5,7,,2,1,3,8,4h[4:1],,,,
{16}6,5,7,,2,,3/4,,5,4,6,1,7,8h[16:3],,,
{16}7,6,5,,3,,2/4,,1-5[8:1],,,,1,,7,,
{8}8^5[8:1],4^1[8:1],8-4-8[4:1],4,8,3,1,,
{16}7-4[8:1],,3-8[8:1],,7,,3,,7,6,5,,3/4,,2h[8:1]/5,,
{16}6,,4/7,,5,6,4,,6,5,7,6,7,,B5/E5/B4,,
{8}1V35<1b[2:1],,5-7[8:1],7-1[8:1],,,,,
{4}8V64[8:1],3<7[8:1],8V64[8:1],3>3[2:1],
{8}B7,,3>3b[2:1],3,B7,,3,3,
{4}7V53[8:1],2>6[8:1],7V53[8:1],2<2[2:1],
{8}B6,,2<2b[2:1],2,B6,,2,2,
{4}6V42[8:1],1>5[8:1],6V42[8:1],1<1[2:1],
{8}B5,,1<1b[2:1],1,B5,,1,1,
{24}5,,,6,,,4/7,,,5,,,8,,,6,7,5,6,,,4,,,
{8}3/5,4/6,5/7,6/8h[8:3],E7f,E5f,E3f,E1f,
{16}7h[8:1],,1,2,3/8,,8,7,1h[8:1]/6h[8:1],,,5h[8:1]/7h[8:1],,,3/4,,
{96}2,,,,,,,,,,,,2,,,,,,,,,,,,2,,,,,,,,,,,,2,,,,,,,,,,,,8x,,,,7,,,,6,,,,5,,,,,,2x,,,,3,,,,4,,,,5,,,,,,1b,,,,,,,,,,,,
{16}2-6[8:1],,7-1[8:1],,2,,7,,4h[8:1],,,6h[8:1],,,8,,
{16}1/7-1[16:1],,,2-6[16:1]/7,,,2,,4w8b[8:1],,,,B4f,,,,
{16}2/6,,2,,5,,4,,1^4[16:1]/3,,,1/5-1[16:1],,,5,,
{24}4,,4,,4,,6,,,6,,,
{16}5-2[16:1],,,5/7-4[16:1],,,7/1,,
{96}8,,,,,,,,,,,,8,,,,,,,,,,,,8,,,,,,,,,,,,8,,,,,,,,,,,,7x,,,,6,,,,5,,,,4,,,,,,1x,,,,2,,,,3,,,,4,,,,,,8x,,,,,,,,,,,,
{12}8,7,6,4,3,2,8-4b[12:1],1,7,8b,,,
{24}7,,,7xh[12:1],,4,5,,,3,,,2x/5x,,4,3,,5,4,,,4/6,,,
{24}7,,7,5,,5,4,,4,2x,,,3,,3,4,,4,5,,5,6b,,,
{24}2-6[8:1],,,3,,8,2,,1,,,,8,,8,6,,6,7,,7,5,,,
{24}7h[12:1],,4,5,,2,,,,2h[12:1],,5,4,,7h[6:1],,,,6,5,4,3,2,1,
{24}6^3[8:1]/8,,,3-7[8:1],,,6,,,2,,,1-6[8:1],,2,4,,4,1,,,,,,
{24}8,,8,5,,5,7,,7,3x,,,1,,1,4,,4,2,,2,6b,,,
{24},,,6,,6,5,,7/4,,,,4,,4,3,,3,2,,2,1,,,
{24}8h[12:1],,5,6,,2,,,,1h[12:1],,4,3,,7,E5,,,E3,,,E1,,,
{8}8h[2:1],B6,B4,B2,1h[2:1],B7,B5,B3,
{8}2h[2:1],B8,B6,B4,3w7[8:1],,,,
{8}5h[2:1],1,2,3,4h[2:1],6,7,8,
{8}1h[2:1],4,5-1-5[4:1],6,,,8,,
{24}8h[8:3],,,5,,,4,,,3,,,2h[12:1],,4,3,,5,4,,6,5,,,
{24}7h[8:1],,,3,,,5-1[8:1],,5,,,,2,,,,,,,,,1,,,
{8}2^5[8:1]/6^1[8:1],,2-6[8:1],,2,5,4-7[8:1],3,
{32}4/2-5[8:1],,,,,,,,2/8,,,,,,,,7,6,5,4,3,2,1,8,7/2-5[8:1],,,,6-1[8:1],,,,
{8}2V41[4:1],6,2,6,5x,5x,2/8,3/7,
{8}4^1[8:1],5,6,7,2/8,5,1/7-3[8:1],4-1[8:1],
{8}7V16[4:1],4,7,3,2x,2x,5/7,4/8,
{24}1,,1,3,,3,7,,7,1,,1,5-2b[12:1],,,3/6,,,7-4[8:1],,,1x-4[8:1],,,
{8}7V16[4:1],1,7,2,4x,4x,1h[8:1]/7h[8:1],,
{8}2^5[8:1],5,6,7,2/8,5,1/7,3/5,
{24}2,,2,4,,4,1,,1,6,,6,5,,5,8,,8,4,,,1/7,,,
{8}2/4,3/5,4/6<5[8:3],5/7,6/8,,,,
{8}4b/7b,3/6,2q6[8:1]/5,1/4,8h[8:1],,
{24}8,,8,2,,2,
{24}7b,,7,8,,8,5,,5,4,,4,2-6[8:1],,,1/3,,,7,,,8,,,
{8}1-5b[8:1],2/8,B1f,,8-4b[8:1],7/1,B8f,,
{8}1-5[8:1],2/8,B1/7,6,4-8[8:1],5/3,B4/2,1,
{16}6xb/8xb,,6/8,,1<5[8:1],2,3,4,1,,,,
{24}3,,3,4,,4,
{24}2b,,2,7,,7,5,,5,8,,8,4-8[8:1],,,3,,,2>5[6:1]/4,,,1,,,
{8}7<3[6:1],,2z6b[4:1],,2,,8,5-1[8:1]/7,
{8}4,3V52-6[3:1]/5,,3,6,7,8<4b[8:1],8,
{8}3V57[8:1],,8<4b[8:1],8,3V57[8:1],,8<3V57[2:1],8,
{8}3,3,2,2,1-5[8:1],,8<4b[8:1],,
{8}3V57[8:1],,8<4b[8:1],8,3V57[8:1],,8<3V57[2:1],8,
{8}3,3,2,2,1w5[8:1],,1,,
{2}8^5[4:1],1^4[4:1],
{4}6,4,2v3-5[4:1],5,
{4}6h[4:1],8h[4:1],1h[4:1],3q5<2[4:3],
{4}Cf,,,5x,
{8}4/6,7,3/5,2,4/6,7,3/5,2,
{8}5/6,7,3/4,2,5/6,7,3/4^7[8:1],2,
{8}2/4qq1[8:3],,6,,7,7,6,6,
{8}1/5,3,8V26-4[8:3]/4,7,3x,3x,3x,,
{8}4/6,7,3/5,2,4/6,7,3/5^8[8:1],4,
{8}5^2[8:1],,5/7,,3/5,,3/4-8[8:1],2,
{4}1-5[8:1],7p3[8:1],2q6[8:1],8<1[8:3],
{8}Cf,,,,,1x/8x,1x/8x,2/7,
{8}6,4/7,3,2/5,6,4/7,3>7b[4:1],6,
{8}7<3b[4:1],,C,,8,,1/2,3/8,
{8}4/7,,3,2/5,6,4/7,3,2/4,
{8}5,4/6,7z3[4:1],7,3,2x,1x,1x,
{8}6,4/7,3,2/5,6,4/7,3,2/5,
{4}7-3[8:1],5-1[8:1],7,8-6[8:1]/2-5[8:1],
{4}2/8,1-3[8:1]/7-4[8:1],1/7,1-5[8:1]/8-6[8:1],
{8}8-4[8:1]/1-3[8:1],,1/8,,1x/8x,2x/7x,3x^1[8:1]/6x^8[8:1],4x/5x,
{8}3x/6x,,1/8,6,4,2,1-4[8:1],,
{4}1-6[8:1],1^4[8:1],1^6[8:1],1,
{8}3/7,,8,2,4,6,8v5[8:1],,
{4}8v3[8:1],8^5[8:1],8^3[8:1],8,
{8}2/6,,1,7,5,3,1-3[8:1],,
{4}1-7[8:1],1-4[8:1],1-6[8:1],1-5[8:1],
{8}7h[4:1]/1,,5,5,4,4,3V51-7[8:3],,
{8}6,,6,,6,,5/7,6,
{16}3h[4:1]/5,,,4,4,,,2/5,,6,6,,4/7,,5/6,,
{16}7h[4:1]/4,,,5,5,,,4/8,,3,3,,2/6,,5,,
{16}3/5,,3/5,,4,6,,7pp5[2:1]/3,,,,,,,,,
{4},,,
{20},
(145)
{1},
{1}3h[4:3]/4h[4:3],
{1}6h[4:3]/5h[4:3],
{8}2/4,2h[4:1]/4h[4:1],,,,3,2/4,,
{8}7/5,7h[4:1]/5h[4:1],,,,6,7/5,,
{8}3,3h[8:3],E5,,,4,{4}35,
{8}6,6h[8:3],E5,,,5,{4}64,
{8}3,3h[8:3],E5,,,4,{4}35,
{8}6,6h[8:3],E5,,,5,{4}64,
{8}3,3h[8:3],E5,,,4,{4}35,
{8}6,6h[8:3],E5,,,5,{4}64,
{8}3,3h[8:3],E5,,,4,{4}35,
{8}6,6h[8:5],{2},{4}5,
6h[8:1]/7h[8:1],5h[8:1]/8h[8:1],4h[8:1]/1h[8:1],23,
6h[8:1]/7h[8:1],5h[8:1]/8h[8:1],4h[8:1]/1h[8:1],23,
{8}5-7[8:1],5,{4}3,{8}5-8[8:1],5,{4}4,
{8}4-1[8:1],4,{4}5,{8}4-2[8:1],6,{4}5-7[8:1],
{4}4-8[8:1],5-1[8:1],4-2[8:1],5-7[8:1],
{4}4-8[8:1],5-1[8:1],4-2[8:1],{8}6,6h[4:1],
,2,2h[1:1],,5,5,,3,
3,4,4,3,2,,1-4[8:1]/4,,
{4}1/6,5h[8:1]/7h[8:1],4h[8:1]/8h[8:1],5h[8:1]/1h[8:1],
4h[8:1]/8h[8:1],5h[8:1]/1h[8:1],4h[8:1]/2h[8:1],3,
{8}6/8,5,1/7,5,2/8,4,1/3,4,
,{4}1,1,{8}1,2-5[8:1]/4,,
{4}2/6,5h[8:1]/7h[8:1],4h[8:1]/8h[8:1],3h[8:1]/1h[8:1],
2h[4:3],6h[8:1],7h[8:1],8,
{8}6/8,5,1/7,5,2/8,4,1/3,4,
,{4}1,1,{8}1,2/4,,
3,4,5,6,{4}6h[4:1],{8}5,4h[4:1],
,{4}5,{8}3,4,5,6,6,
{4}4-1[8:1],5-8[8:1],{8}3,3,4,2-6[8:1],
2,7-3[8:1],7,4x,4x,5x,4x,5x,
6,5,4,3,{4}3h[4:1],{8}4,5h[4:1],
,{4}4,{8}6,5,4,{4}3-6[8:1],
7-2[8:1],3-6[8:1],{8}7,7,5,4p3[8:3]/8,
{2},{4},{8}3,3h[8:7],
,{4}4h[8:1],5h[8:1],4h[8:1],{8}5h[8:1],
2h[4:3],{4}4h[8:1],5h[8:1],3h[8:1],{8}4hx[8:1],
1h[4:3],{4}3h[8:1],4h[8:1],2h[8:1],{8}4h[8:1],
1h[4:3],{4}3h[8:1],5h[8:1],4h[8:1],{8}6,
7h[4:3],{4}5h[8:1],4h[8:1],6h[8:1],{8}5h[8:1],
8h[4:3],{4}6h[8:1],5h[8:1],7h[8:1],{8}5h[8:1],
8h[4:3],{4}6h[8:1],4h[8:1],{8}5,5,{4}4/7,
2/5,3/6,{8}4/5,{4}4/5,
{8}2bh[2:3]/7bh[2:3],,,,,,,,,,,,,,4,4,
{4}5-7[8:1]/4,45,5-7[8:1]/3,5/E5,
5-7[8:1]/3,5/E5/B4,{8}5-7[8:1]/3,2,5/B4/B3/E3,,
78,6,78,6,78,5,78,5,
78,5,17,4,28,4,12,3,
4,35,3h[8:1]/5h[8:1],,71,7h[8:1]/1h[8:1],,2,
3,4,5,6,3,3,
{4}4-2[8:1]/5,
{8}5-1[8:1],6,4-2[8:1],3,5-1[8:1],6,4-2[8:1],3,
{8}5-1[8:1],6,4-2[8:1],3,5-1[8:1],6,4,4,
{4}5-7[8:1]/4,45,5-7[8:1]/3,5/E5,
5-7[8:1]/3,5/E5/B4,{8}5-7[8:1]/3,2,5/B4/B3/E3,,
78,6,78,6,78,5,78,5,
78,5,17,4,28,4,12,3,
4,35,3h[8:1]/5h[8:1],,71,7h[8:1]/1h[8:1],,2,
3,4,5,6,{4}3>8[8:1]/7<4[8:1],37,
{4}1/6,5h[8:1]/7h[8:1],4h[8:1]/8h[8:1],5h[8:1]/1h[8:1],
4h[8:1]/8h[8:1],5h[8:1]/1h[8:1],4h[8:1]/2h[8:1],3,
{8}6/8,5,1/7,5,2/8,4,1/3,4,
,{4}1,1,{8}1,2/4,,
{16}2xw6[8:1],3x,4x,,2b,,,,
{4}4h[8:1]/8h[8:1],3h[8:1]/1h[8:1],
3h[8:1]/6h[8:1],3h[8:1]/7h[8:1],3h[8:1]/8h[8:1],3h[8:1]/1h[8:1],
{8}6/8,5,1/7,5,2/8,4,1/3,4,
,{4}1,1,{8}1,2/4,,
(290)
{8}6xh[4:1],,5,5h[4:1],,7,7,,
{8}3xh[4:1],,4,4h[4:1],,2,2,,
{8}5xh[4:1],,3,3h[4:1],,7,7,,
{4}B4,B2,B8,B6,
{8}4xh[4:1],,5,5h[4:1],,2,2,,
{8}6xh[4:1],,4,4h[4:1],,7,7,5,
{8}4xh[4:1],,6,6h[4:1],,,5/1xs5[4:3],,
{1},
{8}6h[4:1],,5,5h[4:1],,7,7,,
{8}3,3,4h[4:1],,2,2,4,,
{8}6h[4:1],,5,5h[4:1],,7,7,,
{4}4,3/5,4,2/6,
{8}7h[4:1],,5,5h[4:1],,6,6,,
{8}2,2,4h[4:1],,3,3,4,,
{8}2h[4:1],,4,4,,4/5,3-6[8:1]/6,,
{4}7x,8-4[8:1],2x,,
{8}7h[4:1],,4,4,6,,5/7,,
{8}4h[4:1],,5,5,3,,2/4,,
{4}1,B5/E7,2,E5/B6,
{8}3,,2,2,4,,3/5,,
{8}4h[4:1],,7,7,5,,4/6,,
{8}3h[4:1],,4,4,2,,5/2-4[8:1],,
{8}5x,,6,,7,7,5,5,
{8}6x,6x,4x,4xh[8:3],,,6-3[4:1],,
{8}4x,,2,2,4h[4:1],,3-6[4:1],,
{8}5,,7,7,5h[4:1],,6-3[4:1],,
{8}4,,2,2,4h[4:1],,3,,
{8}3/5x,,4/6,4/6,,7,7-4[4:1],,
{8}5b,,3,3,4h[4:1],,2x-5[4:1],,
{8}4,,6,6,5h[4:1],,7,,
{8}6b,6,5,5,6,6,4,4,
{8}3x/7x,3xv8[8:1]/7xv4[8:1],,,,,,,
{8}1h[4:1],,4,4h[4:1],,3,3h[4:1],,
{6}B4/E5,B2/E3,C1,1x,,,
{8}8h[4:1],,5,5h[4:1],,6,6h[4:1],,
{6}B5/E5,B7/E7,C1,8x,,,
{8}7,7,5,6h[4:1],,8,8h[4:1],,
{12}B6/E7,,B1/E1,,B4/E5,,C1,,,1/8,,,
{8}2xh[4:3]/7,,,,,,4,3,
{8}4/8xh[4:3],,,,,,,,
{4}5b/6-8[8:1],1,4/3-1[8:1],8,
{4}4/6<1[4:1],1p5[4:1],5,2,
{4}6x/4>1[8:1],8,3/5<8[8:1],1,
{4}3/4,1/8,2b/6b,,
{8}3/5,3/5,4-8[8:1],,6,,7,7^4[8:1],
{8},8,8h[4:1],,4,,4-8[8:1],,
{96}1b,C1f,,,,,,,,,,,,,,,,,,,,,,,,,,,,,,,,,,,2x,,,,,,,,,,,,,,,,,,,,,,,,3/7,,,,,,,,,,,,3v8[8:1]/7v4[8:1],,,,,,,,,,,,,,,,,,,,,,,,
{8}C1f,,,2x/6x,,8,8,,
{8}3xh[8:1],4xh[8:1],5xh[8:1],6xh[8:1],3xh[8:1],4xh[8:1],5xh[8:1],6x<2[8:1],
{8},4,4,,3-6[8:1],,3,,
{8}8b,,4-8[8:1],,5,,6,6xh[8:7],
{4},B4/B5,B2/E3,8-4[8:1],
{4}6/8xb,8-4[8:1],2/8xb,8-4[8:1],
{8}6/8xb,,8w4[8:1],,8xb,,,2x/6x,
{8}2xh[4:1]/6xh[4:1],,,,1x/5x,,8,8,
{8},1x/7x,1x/7x,1x/7x,2xb/6xb,,,,
{8}7h[4:1],,5,5h[4:1],,3,3h[4:1],,
{8}4,3,2h[4:1],,5-7[8:1],,3,,
{8}2h[4:1],,4,3,5,4,7,,
{8}7h[4:1],,5,6,4,5,2b,,
{8}2h[4:1],,4,4h[4:1],,8,8h[4:1],,
{8}5,6,7h[4:1],,4-2[8:1],,6,,
{8}7h[4:1],,2,6,3,5,2,,
{4}1/8,2/7,3/6
,4/5,
(270)
{8}7h[4:1],,5,5h[4:1],,3,3h[4:1],,
{8}4,3,2h[4:1],,5-7[8:1],,3,,
{8}2h[4:1],,4,3,5,4,7,,
{8}7h[4:1],,5,6,4,5,2b,,
(260)
{8}2h[4:1],,4,4h[4:1],,8,8h[4:1],,
(250)
{8}5,6,7h[4:1],,4-2[8:1],,6,,
(240)
{8}7h[4:1],,2,6,3,5,2,,
(220.0001)
{4}1/8,2/7,3/6,
{32},,,,,
(220)
{12}4,,4,5,,5,3,,3,6,,6,
{12}4,,4,5-1[8:1],,5,4-8[8:1],,,,,,
{12}5,,5,4,,4,6,,6,3,,3,
{12}5,,5,4-8[8:1],,4,5-1[8:1],,,,,,
{12}3,,3,4,,4,2,,2,5,,5,
{12}3,,3,4-1[8:1],,4,3-8[8:1],,,,,,
{12}6,,6,5,,5,7,,7,4,,4,
{12}6,,6,5-8[8:1],,5,6-1[8:1],,,,,,
{4}2-6[4:1],6V84[4:1],,,
{4}1>4[8:1]/8<5[8:1],,2/7,4/5,
{2}2h[4:1]/3h[4:1],6h[4:1]/7h[4:1],
{4}2b-6[8:1],7b-3[8:1],1b-5[8:1],8b,
{4}6/7h[4:1],2,2h[4:1]/3,7,
{4}4/6,3/5,4/7,2/5,
{2}6/5>2[8:1],3/4<7[8:1],
{4}5/6,3/5,4/8,,
{4}2h[4:15]/4,4,3,3,
{4}4,3,4,3,
{2}4-6[8:1],4-1[8:1],
{4}4,4<1[4:1],,,
{4}5/7h[2:3],5,6,6,
{4}5,6,4b,4/5,
{4}3-7[4:1],8,6-2[4:1],1,
{4}4-8[4:1],7,5,2/7,
{4}3/4-8[8:1],2,3/4-8[8:1],1,
{4}6/5-1[8:1],7,6/5-1[8:1],8,
{4}3/4-8[8:1],2,6/5-1[8:1],7,
{4}3/4-8[8:1],1,6/5-1[8:1],8,
{4}7/8-4[8:1],6,2/1-5[8:1],3,
{4}7/8-4[8:1],5,2/1-5[8:1],4,
{4}2h[2:1]/7h[2:1],,,6/5-2[8:1],
{4}6-1[8:1],5-2[8:1],6-1[8:1],,
{4}3-5[8:1],7,6-4[8:1],1,
{4}2-5[8:1],8,7-4[8:1],2,
{4}1/3,7,6/8,2,
{4}4/5,1/8,2b/7b,,
{2}4-2[8:1]/5-1[8:1],4-8[8:1]/5-7[8:1],
{4}5/4-1[8:1],5-8[8:1],4,,
{4}6>3[8:1],1,2<7[8:1],6,
{4}6>3[8:1],,2/8,4/5,
{2}3-1[8:1]/4-8[8:1],5-1[8:1]/6-8[8:1],
{4}4/5,2<7[4:1]/6q3[4:1],,,
{2}5-1[8:1]/6-2[8:1],3-7[8:1]/4-8[8:1],
{4}1b/5,2b/6,3b/7,4b/8,
{2}4-8[8:1]/5-7[8:1],4-2[8:1]/5-1[8:1],
{4}4/5-1[8:1],4-8[8:1],5,,
{4}3<6[8:1],8,7>2[8:1],3,
{4}3>8[8:1]/4p7[8:1],,2/5,4/5,
{2}5-1[8:1]/6-8[8:1],3-1[8:1]/4-8[8:1],
{4}3/6,4/5-8[4:1],1h[4:1],,
{2}1-5[8:1]/2-6[8:1],7-3[8:1]/8-4[8:1],
{4}5/6,3/4,2/7,,
{12}1/8h[6:1],,6,8,,,1h[6:1]/8,,3,1,,,
{4}5/1q5[8:1],8p4[8:1],1b,,
(204)
{12}4,,4,5,,5,4,,4,5,,5,
{12}4,,4,5,,5,4,,4,5,,5,
{12}3,,3,6,,6,4,,4,5,,5,
{12}3,,3,6,,6,4,,4,5,,,
{2}4-2[8:1]/5-1[8:1],4-8[8:1]/5-7[8:1],
{2}4-1[8:1]/5-8[8:1],2/7,
{2}7h[4:1]/6-1[8:1],2h[4:1]/3<6[8:1],
{4}1-5[8:1]/8-4[8:1],,1/8,3/6,
{12}5,,5,4,,4,6,,6,3,,3,
{12}5,,5,4,,4,6,,6,3,,3,
{12}5,,5,7,,7,5,,5,4,,4,
{12}2,,2,4,,4,5,,5,4,,,
(193)
{2}4-8[8:1]/5-7[8:1],4-2[8:1]/5-1[8:1],
{2}4-1[8:1]/5-8[8:1],2/7,
{2}2h[4:1]/3-8[8:1],7h[4:1]/6>3[8:1],
{4}1-5[8:1]/8-4[8:1],,1/8,3/6,
(191)
{12}4,,4,5,,5,3,,3,6,,6,
{12}4,,4,5,,5,3,,3,6,,6,
{12}4,,4,2,,2,4,,4,5,,5,
{12}7,,7,5,,5,4,,4,5,,,
(162)
{12}1/8h[6:1],,6,8,,,1h[6:1]/8,,3,1,,,
{4}5/1q5[8:1],8p4[8:1],1,3/6,
(160)
{12}4,,4,5,,5,4,,4,2,,2,
{12}4,,4,5,,5,7,,7,5,,,
{12}1/8h[6:1],,6,8,,,1h[6:1]/8,,3,1,,,
{4}5/1q5[8:1],8p4[8:1],1,,
(158)
{12}1/8h[6:1],,6,8,,,1h[6:1]/8,,3,1,,,
{4}5/1q5[8:1],8p4[8:1],1q5[8:1],8,
(160)
{2}2b-8[8:1]/7b-3[8:1],2b-5[8:1]/6b-1[8:1],
{4}3b-8[8:1]/7b-4[8:1],,3b-5[8:1]/6b-2[8:1],B4f,
{8}4xb/7xb,4xbh[4:1]/7xbh[4:1],,,5xb/2xb,5xbh[8:1]/2xbh[8:1],,3/7,
{16},,4,6,4,,3/7,,2/8,,2/8,,2b/8b,,,,
{4}3^8[8:1],6^1[8:1],4p7[8:1],5q2[8:1],
{8}3^8[8:1],3,6,6,4h[4:1],B8/B7/E8,B8/B7/E8,,
{4}3^8[8:1],6^1[8:1],4p7[8:1],5q2[8:1],
{8}3^8[8:1],3,6q2[8:1],6,3,B4/B3/E4,B4/B3/E4,,
{4}3^8[8:1],6^1[8:1],4p7[8:1],5q2[8:1],
{8}3^8[8:1],3,6,6,4h[4:1],B8/B7/E8,B8/B7/E8,,
{8}3^8[8:1],,6^1[8:1],6,3p7[8:1],,5q2z6[2:3]*p8s4[2:3],,
(89)
{1},
(175)
{8}E7,B8,A1,,E6,C,E2,,
{8}4,2,7,3h[8:3],,8,8,8,
{8}E5,B3,A2,,E6,C,E2,,
{8}4,2,7,3h[4:1],,7,5,2,
{16}3/4,,6,5,6,,3,4,3,,6,5,7,4,8,,
{16}1/2,,7,5,7,,2,4,2,,7,5,8,4,6,,
{8},2-5[8:1],1,8,7-4[8:1],8,1,2-6[8:1],
{8}1,8,7-3[8:1],8,1-6[8:1],,1,,
{16}5/7,,3,4,3,,6,5,6,,3,4,2,5,1,,
{16}7/8,,2,4,2,,7,5,6,5,,5,6,,4/7,,
{8}2,1-5[8:1],8,6,7-3[8:1],8,3,2-5[8:1],
{8}1,7,8p4[8:1],1,2-6[8:1],,2,,
{8}E4/B3/B4/B6/B7/E7,,2xv5[8:1]/8xv5[8:1],,2x/8x,,,4-7[8:1]/6,
{8},3/4,2,1,8-3[8:1],,8,5-8[8:1],
{8},4/5,3,2,1-4[8:1],,1,6-1[8:1],
{8},5/6,4,3,2-5[8:1],,2,,
{8}E4/B3/B4/B6/B7/E7,,2xv5[8:1]/8xv5[8:1],,2x/8x,,,4-7[8:1]/6,
{8},3/4,2,1,8-3[8:1],7,8,5-8[8:1],
{8},4/5,3,2,1-4[8:1],8,1,6-1[8:1],
{8},5/6,4,3,2-6b[8:1],,2,,
{8}3x/7x,,2x-5[8:1]/8-5[8:1],,2x/8x,,4/6,2V46[4:1],
{8},2/6v3[8:1],7,8,1-6[8:1],2-5[8:1],,,
{4}7xh[8:1],2xh[8:1]/4xh[8:1],5xh[8:1]/6xh[8:1],2xh[8:1]/8xh[8:1],
{16},,1^4[8:1],,,,1,,8,7,6,5,1/4,,C,,
{8}E4/B3/B4/B6/B7/E7,,2xv5[8:1]/8xv5[8:1],,2x/8x,,4/6,7V53[4:1],
{8},3v6[8:1]/7,2,1,8-3[8:1],7-4[8:1],,,
{4}2xh[8:1],7xh[8:1]/5xh[8:1],4xh[8:1]/3xh[8:1],7xh[8:1]/1xh[8:1],
{16},,8^5[8:1],,,,8,,4,3,2,1,4b,,,,
{8}2x-5[8:1]/6-1[8:1],,,,2x-5[8:1]/6,6,7,7,
{2}2x-5[8:1]/8-5[8:1],2x-5[8:1]/6-1[8:1],
{8}2x-5[8:1]/6v1b[8:1],6,6,,7h[4:1]/2x-5[8:1],,,,
{8}2x-5[8:1]/6,6,7p4[8:3],,2x-5b[8:1],,,,
{8}6x-1[8:1]/2-5[8:1],,,,6x-1[8:1]/2,2,3,3,
{2}6x-1[8:1]/4-1[8:1],6x-1[8:1]/2-5[8:1],
{8}6x-1[8:1]/2v5b[8:1],2,2,,3h[4:1]/6x-1[8:1],,,,
{8}6x-1[8:1]/2,2,3,3,4x/8x,4x/8x,1x/3x-6b[8:1],,
{8}7/3,,3/7-3[8:1],2,1-5[8:1],,1,,
{24}6,,6,,6,,4,,4,,4,,7-4[8:1],,,2/8,,,7/3-8b[8:1],,,,,,
{8}3/6-2[8:1],,3/6,4,5V38[4:1],,5,,
{24}7,,7,,7,,5,,5,,5,,6-1[8:1],,,,,,4/6,,,,,,
{8}2h[4:7],,,,E5,,,E7,,,,,E8,,E1,,
{8}3h[4:7],,,,E2,,,E4,,,,,5-8[8:1],,,,
{2}5h[8:3]/7h[8:3],2h[8:3]/4h[8:3],
{8}5h[8:3]/7h[8:3],,,,3,3,4,4,
{8},2/5,3,4,5-2[8:1],,5/7,6-1[8:1],
{8},1,2,3,4-1[8:1]*-7[8:1],,,,
{8}6x/2x,,7x-4[8:1]/1-4[8:1],,7x/1x,,5/3,7V53[4:1],
{8},7/3v6[8:1],2,1,8-3[8:1],7-4[8:1],,,
{4}2xh[8:1],7xh[8:1]/5xh[8:1],4xh[8:1]/3xh[8:1],7xh[8:1]/1xh[8:1],
{16},,8,,,,8,,1,2,7,6,1/5,,C,,
{8}E6/B6/B5/B3/B2/E3,,7xv4[8:1]/1xv4[8:1],,7x/1x,,5/3,2V46[4:1],
{8},6v3[8:1]/2,7,8,1-6[8:1],2-5[8:1],,,
{4}7xh[8:1],2xh[8:1]/4xh[8:1],5xh[8:1]/6xh[8:1],2xh[8:1]/8xh[8:1],
{16},,1,,,,1,,5,6,3,2,1/4b,,,,
{8}7x-4[8:1]/3-8[8:1],,,,7x-4[8:1]/3,3,2,2,
{2}7x-4[8:1]/1-4[8:1],7x-4[8:1]/3-8[8:1],
{8}7x-4[8:1]/3v8b[8:1],3,3,,2h[4:1]/7x-4[8:1],,,,
{8}7x-4[8:1]/3,3,2q5[8:3],,7x-4b[8:1],,,,
{8}3x-8[8:1]/7-4[8:1],,,,3x-8[8:1]/7,7,6,6,
{2}3x-8[8:1]/5-8[8:1],3x-8[8:1]/7-4[8:1],
{8}3x-8[8:1]/7,7,7,7,6/3x-8[8:1],6,6,6,
{16}5x,3,5,3,6,2,6,2,7-3[8:1],,,,2/7,,,,
{32}1b,2,3,4,5,6,7,8,1,2,3,4,5,6,7,8,1,2,3,4,5,6,7,8,1,2,3,4,5,6,7,8,1,2,3,4,5,6,7,8,1,2,3,4,5,6,7,8,1,2,3,4,5,6,7,8,1b,,,,,,,,
{8}6-1[8:1],5,4-7[8:1]/6,3,4,,8h[4:1],,
{16}6,,5,,4,,3,,6,4,6,4,6b,,,,
{8}3-8[8:1],5,3/6-2[8:1],7,6,1,1h[4:1],,
{16}3,,4,,5,,6,,3,5,3,5,3,,,,
{16}1b,5,2,5,3,5,4,5,4b,6,4,7,4,8,4,,
{32}3b,2,1,8,7,6,5,4,3b,2,1,8,7,6,5,4,3xb/7xb,,,,2xb/6xb,,,,1xb-4[8:1]/5xb,,,,,,,,
{8}1/6,,3/5,3,4/6,6,3/5-8[8:1],2,
{8}3/5,4,5h[4:1],,6,6,3-8[8:1]/5,2,
{8}3/5,5,6,6,4,4,5-3[8:1]/7,7,
{16}8-6[8:1],,8,,2,,2,,3,5,3,,2/6,,3,,
{8}7-4[8:1],8,1,2-5[8:1],1,8,7,8,
{16}1/6,,6,,3/7,,3,,8,7,6,,2-5[8:1]/4,,1,,
{8}6,6,7,5,4/6,6,3/5-7[8:1],3,
{16}2-4[8:1],,1,,2,,8,,7,5,6,,3/4-7[8:1],,2,,
{16}1,,2,,3,,4,,7,5,7,5,7,,3,,
{8}2,2,4,5,4/6,6,3/5-7[8:1],3,
{16}2-4[8:1]/5,,2,,8,,7,,6,5,6,5,6,,4/7,,
{8}8^5[8:1],5,4,3-8[8:1],4,4,6,6,
{16}7,5,7,5,7,,4/8,,2,,3/4,,6,,5/6,,
{16}2,4,2,4,3,,3,,7,5,7,5,6,,6,,
{16}4,5,3,4,2,,2,,4,3,5,4,6,,6,,
{16}4,6,3,5,4,,5,3,6,2,7,3,5,,4/6,,
{8}3,3,3h[4:1],5,5,5h[4:1],2,2,
{8}2h[4:1],6,6,6h[4:1],4,4,4h[4:1],7,
{8}7,7h[4:1],5,5,5h[4:1],6,6,4,
{8}7-4[8:1],8,1,2-5[8:1],1,8,7-4[8:1],8,
{8}1,2-6[8:1],1,8,7-4[8:1],8,1,2-6[8:1],
{8}1,8,7-3[8:1],8,1,2-5[8:1],1,8,
{8}7,8-4[8:1],1,3,2-6[8:1],1,7,8p4[8:1],
{16}1,,3,,2,,1,,6,,7,,1,8,1,8,
{16}1,8,1,8,1,8,1,8,1,8,1,8,1,8,1,8,
{16}1,8,1,8,1,8,1,8,1,8,1,8,1,8,1,8,
{1}1xz5[2:3]*s5[2:3],,
{8}3x/7xV58[4:1],4,3,2,1-5[8:1],8,7,6,
{8}6V47[4:1],2-5b[8:1],6,2,,8,8,4,
{8}5/7,7,5/7,5,5/7,7,6,5,
{8}2-5[8:1],5-1[8:1],2,,7-4[8:1],,7/1,,
{8}2^5[8:1],5,6,7,7V16[4:1],,5,3,
{32}2h[2:1],,,,,,,,A6,D7,A7,D8,A8,D1,A1,D2,,D3,A3,D4,A4,D5,A5,D6,6x/3,,,,3,,,,
{8}4/6,6,4/6,4,4/6,6,4/6,4,
{8}3/7,3/7,2/8,3h[4:1]/7h[4:1],,,,2-5[8:1],
{8},5,6,7-4[8:1],7,4,3,2,
{16}1/7,,,2z6[4:1]/6,,,,,,,,,,,,,
{8}7-3[8:1],,2/7,1-5[8:1],,1/6,7,8,
{8}1V74[8:3]*V36[8:3],,,,,,,2-7[8:1],
{8},7,6,5V74[4:1],,4,3,2,
{8}1,1h[4:1],4,4pp7[4:1],,,,,
{8}2/6,2,2/6,6,2/6,2,2/6,6-2[4:1],
{8},2,3-7V14b[8:3],4,,,,,
{2}8^5[2:1],E7,
{2}1^4[2:1],E3,
{2}8^5[2:1],B6/B7,
{2}1^4[2:1],B2/B3,
{8}5/6,4h[8:1]/7h[8:1],,3/4,2h[8:1]/5h[8:1],,5/6,4h[8:1]/7h[8:1],
{8},3/4,3/4,2h[8:1]/5h[8:1],,5/6,5pp1[4:3]/6qq1[4:3],4/7,
{1},
{16}A7,E8,E1,A1,A6,B6,C,B2,A2,,4x/7x,,3x/5x,,2x/6x,,
{32}1xb,2,3,4,5,6,7,8,1,2,3,4,5,6,7,8,1,2,3,4,5,6,7,8,1,2,3,4,5,6,7,8,
{32}1xb,2,3,4,5,6,7,8,1,2,3,4,5,6,7,8,1,2,3,4,5,6,7,8,1,2,3,4,5,6,7,8,
{32}1xb,2,3,4,5,6,7,8,1,2,3,4,5,6,7,8,1,2,3,4,5,6,7,8,1,2,3,4,5,6,7,8,
{32}1xb,2,3,4,5,6,7,8,1,2,3,4,5,6,7,8,1,2,3,4,5,6,7,8,1,2,3,4,5,6,7,8,
{32}1xb,2,3,4,5,6,7,8,1,2,3,4,5,6,7,8,1,2,3,4,5,6,7,8,1,2,3,4,5,6,7,8,
{32}1xb,2,3,4,5,6,7,8,1,2,3,4,5,6,7,8,1,2,3,4,5h[4:1],,,,,,,,,,,,
{8},4/6,3,3,2/7,6,6,2-5[8:1]/5-1[8:1],
{8},2/5,,,,4/8,3/7,2/6,
{8}1^4[8:1],4v1[8:1],1,6,7-4[8:1],3,7-3b[8:1],2-6[8:1],
{8}7-4b[8:1],2,7,2-5[8:1],,8h[4:1],,2,
{8}7-4[8:1],4V61[4:1],7,3,2-6[8:1],3,2,,
{8}5/8,4/7,3/6,2h[4:1]/5h[4:1],,,1,7,
{8}6^1[8:1],6,1,2,3-7[8:1],3,7,6,
{8}5-1[8:1],5,1,2,3^6[8:1],3,6,7,
{8}1b,,,2/8,2,3,6/4,6-8[8:1],
{8},4-2[8:1],,5-1[8:1],,2/5,3,4,
{1}5h[1:1],
{8}7h[2:1],,,5,5,,6/4,,
{8}6h[2:1],,,4,4,,5/3,,
{8}5h[2:1],,,3,3,,4/2,,
{8}4h[2:1],,,2,2,,3/1,,
{8}2h[8:5],,,,,4x,3x/5x,4xh[8:3]/6xh[8:3],
{8},,,3x/7x,2x/6x,,6x/2x,7x-4[8:1]/3x-8[8:1],
{8},3x/7x,,,,5,6,7,
{8}8^5[8:1],5v8[8:1],8,3,2-5[8:1],6,2-6b[8:1],7-3[8:1],
{8}2-5b[8:1],7,2,7^4[8:1],,1h[4:1],,7,
{8}2-5[8:1],5V38[4:1],2,6,7-3[8:1],6,7,,
{8}4/1,5/2,6/3,7h[4:1]/4h[4:1],,,8,2,
{8}7^4[8:1],7,4,3,2-6[8:1],2,6,7,
{8}8p4[8:1],8,4,3,2-6[8:1],2,6,7,
{8}8b,,,7/1,7,6,3/5,3-1[8:1],
{8},7-5[8:1],,4-8[8:1],,7,6,5,
{8}4xbh[4:1]/8bxh[4:1],,,4bxh[4:1]/8bxh[4:1],,,4bxh[4:1]/8bxh[4:1],,
{8},1xb/5xb,,,,,,,
(48.6)
{1},
(220){1},
{1},
{8}1,1,1,1,2/8,2/8,2/8,2/8,
{16}3,7,3,7,4,6,4,6,4,,,,3/7,,,,
{4}2-5[8:1],6-8[8:1],3-5[8:1],7-4[8:1],
{4}3-1[8:1],6-4[8:1],2-6[8:1],5,
{4}7-4[8:1],3-1[8:1],6-4[8:1],2-5[8:1],
{4}6-8[8:1],3-5[8:1],7-3[8:1],4,
{4}2>5[8:1],6<8[8:1],3-5[8:1],7-4[8:1],
{4}3>1[8:1],6>4[8:1],2v5[8:1],5,
{4}7<4[8:1],3>1[8:1],6-4[8:1],2-5[8:1],
{4}6<8[8:1],3<5[8:1],7,4/8,
{8}3h[4:1],,4,5,6h[4:1],,5,5,
{8}8h[8:1],5h[8:1],7h[8:1],4h[8:1],6h[8:1],3h[8:1],4h[8:1],2h[8:1],
{8}5h[8:1],3h[8:1],5h[8:1],3h[8:1],4h[8:1],2h[8:1],4h[8:1],2h[8:1],
{8}3h[8:1],1h[8:1],3h[8:1],1,,2/4,2/4,,
{8}4/6h[4:1],,5,4,3h[4:1],,4,4,
{8}3h[8:1],5h[8:1],2h[8:1],4h[8:1],1,,2/4,,
{8}3h[4:1]/5,,4,5,6h[4:1],,5,5,
{8}6h[8:1],4h[8:1],7h[8:1],5h[8:1],8,,5/7,,
{4}3-5[8:1],6,7-5[8:1],3,
{8}1-5[8:1],,7,8h[4:1],,5,4,,
{4}6-4[8:1],3,2-4[8:1],6,
{8}8v5[8:1],,2,1h[4:1],,5,6,,
{2}7-5[8:1]/8p4[8:1],1q5[8:1]/2-4[8:1],
{8}7/8,6,1-4[8:1]/5-8[8:1],,,,,,
{2}1q5[8:1]/2-4[8:1],7-5[8:1]/8p4[8:1],
{8}1/2,3,4-1[8:1]/8v5[8:1],,,,,,
{4}6<8[8:1],1,2>4[8:1],7p4[2:1],
{8}3h[8:3],,,,,2,2,,
{4}3>1[8:1],8,7<5[8:1],2,
{8}3h[4:1],,4,4,,2/5,2/5,,
{8}6h[4:1],,5,4,3h[4:1],,4,5,
{4}6h[4:1],8h[4:1],1h[4:1],3,
{8}3h[4:1]/5h[4:1],,,3/5,4h[4:1]/6h[4:1],,,4/6,
{1}3pp7[2:1]/5qq1[2:1],
{4}8<5[4:3]<8[4:3],,3,3,
{4}4,4,3,3,
{4}4>1[4:3]>4[4:3],,7,7,
{4}8,8,7,7,
{4}8qq5[2:3],,3,3,
{4}4,4,3,3,
{4}4,4,5,5qq8[4:3],
{4},,,1xw5b[4:1],
{8},,,,4/6,7,8,1,
{4}2/4,5/6,7/8,1>5b[4:1],
{8}5,,6,,4/6,3,2,1,
{4}7/8,5/6,1/2,4/3-5[8:1],
{8}7h[4:1],,6,6,8,8,4,3<6[8:1],
{8},7h[4:1],,8,,1/6,1/6,,
{4}3h[8:1]/5h[8:1],4h[8:1]/6h[8:1],3h[8:1]/5h[8:1],7-4b[8:1],
{4}3-8b[8:1],6-1b[8:1],2-5b[8:1],8b,
{8}7>2[8:1],,4,4,3<6[8:1],,7,7,
{4}8V64[4:1]*V24[4:1],,,3/5,
{8}2>5[8:1],,6,6,7p3[8:1],,2,2,
{8}1-4[8:1],,4,5h[4:1],,4,3/6,,
{8}2h[4:1]/7h[4:1],,,4/6h[4:1],,5,5,,
{8}5/4-1b[8:1],4/5-8[8:1],,,,,1/2,,
{4}7/8,8z4[8:3]/1,,,
{4}2-5[8:1],6-8[8:1],3-5[8:1],7-4[8:1],
{4}3-1[8:1],6-4[8:1],2-6[8:1],5,
{4}7-4[8:1],3-1[8:1],6-4[8:1],2-5[8:1],
{4}6-8[8:1],3-5[8:1],7-3[8:1],4,
{4}2>5[8:1],6<8[8:1],3-5[8:1],7-4[8:1],
{4}3>1[8:1],6>4[8:1],2v5[8:1],5,
{4}7<4[8:1],3>1[8:1],6-4[8:1],2-5[8:1],
{4}6<8[8:1],3<5[8:1],7,4/8,
{8}3h[4:1],,4,5,6h[4:1],,5,5,
{8}8h[8:1],5h[8:1],7h[8:1],4h[8:1],6h[8:1],3h[8:1],4h[8:1],2h[8:1],
{8}5h[8:1],3h[8:1],5h[8:1],3h[8:1],4h[8:1],2h[8:1],4h[8:1],2h[8:1],
{8}3h[8:1],1h[8:1],3h[8:1],1,,2/4,2/4,,
{8}4/6h[4:1],,5,4,3h[4:1],,4,4,
{8}3h[8:1],5h[8:1],2h[8:1],4h[8:1],1,,2/4,,
{8}3h[4:1]/5,,4,5,6h[4:1],,5,5,
{16}6xh[8:1],,4xh[8:1],,7xh[8:1],,5xh[8:1],,6,4,6,4,7,3,7,3,
(219.6)
{4}8xh[4:1],,5/7,3/4,
{4}1/2,8xh[4:1],,4/6,
{4}8xh[4:1],,5/7,3/4,
{4}1/2,8xh[4:1],,4/6,
{4}8xh[4:1],,5/7,3/4,
{4}1/2,8xh[4:1],,4/6,
{8}8xh[4:1],,,,5/7,6,3/5,2,
{16}8xh[8:1],,,,8xh[8:1],,,,1b,7b,1b,7b,1xbh[8:1],,,,
{4}1xh[4:1],,4/2,6/5,
{4}8/7,1xh[4:1],4,5/3,
{4}1xh[4:1],,4/2,6/5,
{4}8/7,1xh[4:1],4,5/3,
{4}1xh[4:1],,4/2,6/5,
{4}8/7,1xh[4:1],4,5/3,
{8}1xh[4:1],,,,4/2,3,6/4,7,
{16}8,,8,,1,,1,,8,2,8,2,8x/Cf,,,,
{4}5b/6b-1b[8:1],2b,4b/3b-8b[8:1],7b,
{4}5b/6b-1b[8:1],2b,4b/3b-8b[8:1],7b,
{4}5b/6b-1b[8:1],2b,4b/3b-8b[8:1],7b,
{8}5b/6b-1b[8:1],,2b,,4b/3b-8b[8:1],,7b,7b,
{4}7x-4[8:1]/5x,3,1/2-5[8:1],6,
{8}7-4[8:1]/8,,3,,1/2-5[8:1],,6,6,
{4}7-4[8:1]/8,3,1/2-5[8:1],6,
{16}7-4[8:1]/8,,,,3,,,,5/2,,6,6,4,,3/7,,
{4}5b/6b-1b[8:1],2b,4b/3b-8b[8:1],7b,
{4}5/6-1[8:1],2x,4/3-8[8:1],7x,
{4}5b/6b-1b[8:1],2b,4b/3b-8b[8:1],7b,
{8}5/6-1[8:1],,2x,,4/3-8[8:1],,7x,7x,
{4}7bx-4b[8:1]/5bx,3b,1b/2b-5b[8:1],6b,
{8}7-4[8:1]/8,,3x,,1/2-5[8:1],,6x,6x,
{4}7b-4b[8:1]/8b,3b,1b/2b-5b[8:1],6b,
{16}7-4[8:1]/8,,,,3x,,2x,,7b,1b,7b,1b,7b,,,,
{4}2b-7[8:1]/4,5x,2b-7[8:1]/4,5x,
{8}2b-7[8:1]/4,,5x,,2b/4,5,6x/3,,
{4}2b-7[8:1]/4,5x,2b-7[8:1]/4,5x,
{8}2b-7[8:1]/4,,5x,,2bp3[4:1]/4,5,6x,,
{4}7b-2[8:1],4x,7b-2[8:1]/5,4x,
{8}7b-2[8:1]/5,,4x,,7b/5,4,3x/6,4,
{4}7b-2b[8:1]/5,4x,7b-2[8:1]/5,3x-6b[8:1],
{16}7b-2[8:1],,,,,,,,1,7,1,7,8b-3[8:1],,8b,,
{4}6-1b[8:1],2-5[8:1],7-4b[8:1],2-7[8:1],
{4}8-5b[8:1],4-1[8:1],6-3b[8:1],2-6[8:1],
{4}7-4b[8:1],3-8[8:1],6-1b[8:1],3-6[8:1],
{8}5-8b[8:1],,1-4[8:1],,7,7,8-4b[8:1],,
{4}3-8[8:1],6-1b[8:1],3-6[8:1],5-8b[8:1],
{8}1-4[8:1],,7-2b[8:1],,4,,3/7,3/7,
{24}2/6^1[8:1],,,,,,2x,3,4,5,,,3/7,,,,,,1^4[8:1]/5,,,,,,
{24}5,6,7,8,,,2/6,,,,,,1b,,,3b,,,5b,,,
{1}7b,,
{16},,,,,,,,,,,,,,3x,4,
{16}5,6,3x,4,5,6,3x,4,5,6,1b,,,,2-7b[8:1],,
{8},6,,2-5[8:1]/6,,6,,2-7[8:1]/6,
{8}6,6,6,6/8-3[8:1],,6,,2-5[8:1]/7-1[8:1],
{8},,,7-4[8:1]/2-8[8:1],,,,5/3,
{16},,6/2,,,,7/1,,,2,1,,8/2,,1x,1x,
{16}1x,,2x/8x,,3x/7x,,4/6-2[8:1],,,,4,,,,1v7[8:1]/4,,
{8}4,4,4,4/8-4[8:1],,4,,2-4[8:1]/5-7[8:1],
{8},,,8-5[8:1]/5-2[8:1],,,,4/6,
{16},,3/7,,,,2b,8b,2b,8b,2b,,,,1x/7x,,
{16}1x/7x,,8x,8x,8x,,2v5[8:1]/6,,,,6,,,,2^7[8:1]/6,,
{8}6,6,6,6/2q6[8:1],,8,,7-5[8:1]/5-2[8:1],
{8},,,1-4[8:1]/4-6[8:1],,,,3/7,
{16},,4/6,,,,3/7,,,2,8,,3/7,,1x,1x,
{16}1x,,2x/8x,,3x/7x,,4/6-2[8:1],,,,4,,,,1v6[8:1]/4,,
{8}4,4,4,4-1[8:1]/8,,,7x,2,
{8}2,1x/7x,2,3x/5x,6,7s3[2:1],,,
{8},,,,,1/7,,
{8}8xh[4:1],,,,5/7,6,3/4,,
{4}1/2,8xh[4:1],,4/6,
{8}8xh[4:1],,,,5/7,6,3/4,,
{24}1/2,3,4,5,,,8xh[4:1],,,,,,4,3,2,1,,,6,,,,,,
{8}8xh[4:1],,,,5/7,6,3/4,,
{4}1/2,8xh[4:1],,4/6,
{16}8x,,4,6,4,,3/7,,6,,5,,4,,,,1xh[8:1]/2xh[8:1],,,,
{16}4xh[8:1]/6xh[8:1],,,,3b,5b,3b,5b,3b,,2/6,,
{8}1xh[4:1],,,,8/2,3,6/4,,
{16}3/7,,,,1xh[4:1],,8,7,6b,,,,3/5,,,,
{8}1xh[4:1],,,,8/2,3,6/4,,
{16}3/7,,,,1xh[4:1],,7,6,5b,,,,4/6,,,,
{8}1xh[4:1],,,,8/2,3,6/4,,
{16}3/7,,,,1xh[4:1],,6,5,4b,,,,3/6,,,,
{8}1xh[4:1],,,,8/2,3,6/4,,
{1}3pp2[2:1]/7qq8[2:1],
(220.1)
{4}7h[8:1]/1h[8:1],2h[8:1]/8h[8:1],3h[8:1]/1h[8:1],2^7[2:1]/4,6,5,4,3/6,
{4}7h[8:1]/1h[8:1],2h[8:1]/8h[8:1],3h[8:1]/1h[8:1],2/4^1[2:1],1,8,7,8/6,
{4}7h[8:1]/5h[8:1],4h[8:1]/6h[8:1],3h[8:1]/5h[8:1],4^7[2:1]/2,8,1,2,3/8,
{4}7h[8:1]/5h[8:1],4h[8:1]/6h[8:1],3h[8:1]/5h[8:1],4/2V83[2:1],
{16},,,,,,,,4,5,6,7,8/4x,,,,
{4}7-4[8:1],2,1-5[8:1],6^3[2:1],2,1,8,7,
{4}5-8[8:1],2,3-7[8:1],6^1[2:1],2,3,4,5,
{4}7-4[8:1],2,1-5[8:1],6^3[2:1],2,1,8,7,
{4}5-8[8:1],2,3-7[8:1],6^1[8:1],2-6V41[2:1],,,,
{8}5/6,,6,5,,5,6,,5/6,,5,6,,6,5,,
{8}5/6,,6,5,5,6,5/6,,4/6,,3/5,,C/E1f/B1/B8/B2/B7,,,,
{4}5/6,2,3/4,7-4[8:1],
{4}4V68[2:1],,1,2,
{4}3/4,7,5/6,2-5[8:1],
{8}5,,7,6,,6,7-4[8:1],,
{8}1/7,,2/6,,3,4,5/6,,
{8}7,,4/8-4[8:1],,2,1-6[8:1],,4,
{8}5,6x,7,,2,8,2V48[8:3],,
{8}7-4[8:1],,,,,,8-4[8:1]/4-7[8:1],,
{8},,3,5,5,3,6,6,4x/6x,
{8}3,3,3x/5x,,3x/5x,3h[4:1],,
{8}6,6,3,5,5,4,5,5,5x/3x,
{8}4,4,6x/4x,,6x/4x,6h[4:1],,
{8}1,,7h[4:1],,3,2,1/5,,
{8}2,3,6,7,5w1[8:1],,,,
{2}3-8[8:1]/7-4[8:1],3-6[8:1]/7-2[8:1],
{4}3-8[8:1]/7-4[8:1],3x<8[4:1]/7x>4[4:1],3x/7x,,
{8}7h[4:1],,3,4,5/6,,7,6,
{8}3x-8[8:1]/5x,,4,,3-6[8:1],,1,1,
{8},7,6,6,4,4,5,5,
{8}1,2,3,1-6[8:1]/4-1[8:1],,4x-7[8:1],,,
{8},2,2h[4:1],,7,7h[4:1],,5,
{8},2,2/4,,7,5/7,,2,
{8}2/4,3,4,5,6,7^4[4:1],,4q8[4:1],
{8},1,,3,,5/7,4/6,3/5,
{8},2,2,,7p3[8:1],1,7,,
{8}2-5[8:1],8,2,7,6-1[8:1],4,6,3,
{8}2/8,2,3,3,4/6,6,7,7,
{8}2/8,2,1,1,2x-6[8:1]/8x-4[8:1],,2x/8x,,
{4}7h[2:1],5,4h[4:1],2,
{4}3h[2:1],4,5h[4:1],7,
{4}6h[4:1],4h[4:1],2h[4:1],8<1[4:3],
{1},
(220)
{8}1b/8b,2,3,4,5/7-3[8:1],,1,1h[4:1],
{8},5,5h[4:1],,1,,2/6,,
{8}5,6,7,8,1-6[8:1]/3,,3,3h[4:1],
{8},5,5h[4:1],,4,,7/1,,
{8}1,2,3,4,5/6^1[8:1],,4/6,3-7[8:1],
{8},6,5,5h[4:1],2,3,4,7h[4:1],
{8},5,4pp7[8:3],3,2h[4:1],,,1h[4:1],
{8},6,7^2[8:1],,5-8[8:1]*-2[8:1],,,,
{8},2/8,7,6,5/3h[4:1],,7,5/7,
{8},2,4/2,,7x-3[8:1]/8x-5[8:1],,7x/8x,,
{16}6,4,6,,3,,2,,1h[4:1]/5,,,,6,,6/8,,
{8},3,1/3,,4x-7[8:1]/6x-3[8:1],,4x/6x,,
{8},2-5[8:1],,2/5,6-1[8:1],,6/4,2,
{8}2,7h[4:1],,3,8,4,1h[1:2],5bh[8:15],
{1},
{32},,,,,,,,,,,,,,,,,,,,,,,,,4x/8x,3x/7x,2x/6x,1x/5x,,,,
{8},2b/8b,3,3,4/6,,5/7,5/7,
{8},2/4,2/4,,1-5[8:1]/5-7[8:1],,1/5,,
{8}3,3,3/5,5,6,6,4/6,4,
{8}3/5,5,6,6,5-1[8:1]/7-5[8:1],,5/7,,
{8},2/4,3,4,5/7,6,5,2/4^7[8:1],
{8},2,3,4,7,5,7,2^5[8:1],
{8},5,6,7,3,8,3,5s1[8:3],
{8},2,3,4,5h[4:1],,1b,,
{8},3x/7x,2x/8x,2x/8x,3b/7b,,1,2^5[8:1],
{8},6,6h[4:1],,4h[4:1],,8b,,
{16}7,5,7,,6,,5,,2-5[8:1]/4,,,,6,,6h[4:1],,
{8},1,2-5[8:1],,7h[4:1],,1b,,
{8}2/8,2/8,3/7-3[8:1],,2^7[8:1],,2,6h[4:1],
{8},3,2,2,1-5[8:1],5,1,7h[2:1],
{8},6,5,4,3-8[8:1],,3,6^3[8:1],
{8},6,2,,1-5[8:1],,5pp2[1:2]*qq8[1:2],,,
(75.8)
{1},
(185)
{4}6h[1:2],5,,5,
{4},5,,5,
{4}3h[1:2],4,,4,
{4},D2/E2/B1/B2,D5/E5/B4/B5,D8/E8/B8/B7,
{4}7h[1:1],4,5,6,
{4}2h[1:1],5,4,3,
{4}8h[1:1],5,6,7,
{16}3,,,,3/6,,,,4,5,4,5,4,5,4,5,
{4}4-8[8:1],5-7[8:1],4-8[8:1],5-7[8:1],
{4}4-2[8:1],5-1[8:1],4-2[8:1],5-1[8:1],
{4}4-8[8:1],5<7[8:1],4-8[8:1],5<7[8:1],
{4}4q7[4:1],,,1/6,
{4}5-1[8:1],4-2[8:1],5-1[8:1],4-2[8:1],
{4}5-7[8:1],4-8[8:1],5-7[8:1],4-8[8:1],
{4}5-1[8:1],4>2[8:1],5-1[8:1],4>2[8:1],
{4}5p2[4:1],,,1/8-5[8:1]*>5[8:1],
{8}8b,,,3,3/4,,2,2-7[8:1],
{8},6-3[8:1],,2b,,1,1,1,
{8}6,6,2,2,1h[4:1]/8h[4:1],,,6/8,
{8},1/3,,2/7,,2/8,2v5[8:1]/8v5[8:1],,
{8}2b/8b,,,6,5/6,,7,7-2[8:1],
{8},3-6[8:1],,7b,,8,8,8,
{8}3,3,7,7,1/8,1/8,1/8,1h[4:1]/8h[4:1],
{8},,,1/8,1-6[8:1]/8-3[8:1],,1b/8b,,
{4}3-1[8:1],4-8[8:1],3-1[8:1],4-8[8:1],
{4}3-7[8:1],4-6[8:1],3-7[8:1],4-6[8:1],
{4}3-1[8:1],4-8[8:1],3-1[8:1],4-8[8:1],
{4}3qq7[4:1],,,1/8V63[16:3],
{8}8b,,,1,1/8,,2,2-5[8:1],
{8},6-1[8:1],,2b,,4,4,4,
{8}5,5,2,2,1h[4:1]/8h[4:1],,,6/8,
{8},1/3,,2/7,,1/8,1-5[8:1]/8,,
{8}1b,,,8,1/8,,7,7-4[8:1],
{8},3-8[8:1],,7b,,5,5,5,
{8}4,4,7,7,1/8,1/8,1/8,,
{4}2/7,3/6,4/5,4-1[8:1],
{4}8,8,6/7,4-1[8:1],
{4},2/8-5[8:1],,4-1[8:1],
{4},2/8-5[8:1],,4-1[8:1]/6,
{4},2/8-5[8:1],,2-7[8:1],
{4}5,4,2/3,2-7[8:1],
{4},6-3[8:1]/8,,2-7[8:1],
{4}6-3[8:1],4-1[8:1],8-5[8:1],4bv1[8:1]*v7[8:1],
{4},4bV25[16:3]/6bV85[16:3],,,
{4}2-7[8:1]/8,6,4/6-3[8:1],2,
{4}6h[4:1]/8p3[8:1],,1/2,1>5[4:1],
{4}5<1[4:1],1>5[4:1],5<1[4:1],1>8[2:1]*q8[2:1],
{4},,,2/7,
{4}2-7[8:1]/8,6,4/6-3[8:1],2,
{4}1-5[8:1],8-4[8:1],1-6[8:1],8<4[4:1],
{4}4>8[4:1],8,4,5p2[4:3]/6pp1[4:3],
{1},
{2}3-6[8:1]*-8[8:1],2-5[8:1]/7-2[8:1],
{2}6-1[8:1]*-3[8:1],2-7[8:1]/7-4[8:1],
{4}6<2[4:1],2>6[4:1],6<2[4:1],2,
{8}6,,1/5,,7/8,7q4[4:1]/8>3[4:1],,,
{8},,,,1/2,1<6[4:1]/2p5[4:1],,,
{4},4/7,1/8,5/6,
{2}6-2[8:1]/7-1[8:1],2-8[8:1]/3-7[8:1],
{4}6q3[4:1]/7>2[4:1],,,1>4[8:1]/8,
{4}1/8<5[8:1],1>4[8:1]/8,1/8<5[8:1],1b/8,
{4}3/4,4/7,2/5,1>4[8:1]/8,
{4}1/8<5[8:1],1>4[8:1]/8,1/8<5[8:1],1b/8,
{8}3/4,,5/6,,1,1,1>4[8:1]/8,,
{4}1/8<5[8:1],1>4[8:1]/8,1/8<5[8:1],1b/8,
{4}3/4,4/7,2/5,1>4[8:1]/8,
{4}1/8<5[8:1],1>4[8:1]/8,1/8<5[8:1],1b/8,
{4}3/4,5/6,1/8,3b/6b,
{4}6-8[8:1],5-1[8:1],6-8[8:1],5-1[8:1],
{4}6-2[8:1],5-3[8:1],6-2[8:1],5-3[8:1],
{4}6-8[8:1],5-1[8:1],6-8[8:1],5-1[8:1],
{4}6pp2[4:1],,,3/8,
{1}1bh[2:9],,,,
{8},,,,5,6,3b/7b,,
{8}2-5[8:1]/8-5[8:1],,2/8,,4/6,3,2,1pp4[8:3]/5,
{8},5,6,7,8^5[8:1],,,,
{8}4-7[8:1]/2-5[8:1],,2/4,,6,5,4,3/7V58[4:1],
{16},,4,,3,,2,,7,1,7,1,7,,,,
{8}6-1[8:1]/2-5[8:1],,2/6,,4,3,2,1/5pp8[8:3],
{8},4,3,2,1^4[8:1],,,,
{8}5/7h[4:1],,1V35[4:1],,5,6,7,8h[4:1],
{16},,5h[16:3],,,3h[16:3],,,1,,,,,,,,
{1}2xh[4:3]/8xh[4:3],
{8}3,3,4h[8:1],2,6,6,5h[8:1],7,
{8}3,3,4<8[8:3],,8,8z4[8:5],,2h[8:7],
{1},
{8}3xh[4:1]/7xh[4:1],,,6,4,4,5h[8:1],3,
{2}2-5[8:1]/6-8[8:1],7-4[8:1]/3-1[8:1],
{8}8,1,2-5[8:1]/7-4[8:1],,,,,,
{8}4/6,7,3/5,2,6,6,2/8,,
{8},7,5,7,2,2,4,3,
{8}2/4,2,,7,5xh[4:1]/7xh[4:1],,,,
{8}6,5,4,3,3/5,6,4/6,,
{16}3/7,,6,,6,,2,,2/6,,5,3,5,,6,,
{8}7xh[4:1]/1xh[4:1],,,,2,2,6h[8:1],4,
{8}7,5,7,,2,4,2,,
{4}5h[8:1]/7h[8:1],6h[8:1]/4h[8:1],3h[8:1]/5h[8:1],2h[8:1]/6h[8:1],
{4}1h[8:1]/7h[8:1],2h[8:1]/8h[8:1],3/7,A1/B1/C/B5/A5,
{8}6h[4:1],,5,,3,3,2/4,,
{8}3h[4:1],,4,,6,6,5/7,,
{8}8h[8:3],5,4,3,2h[8:3],7,6,5-2-7-4-8[2:1],
{2},1-5b[8:1],
{8}7,7,5,6h[4:1],,4,3,2,
{8}6h[8:1],4,6h[8:1],8,6h[8:1],5,6h[8:1],2,
{8}7-4[8:1],7,1-5[8:1],1,8-4[8:1],8,2-5[8:1],2,
{8}7,8qq5[8:3]*pp1[4:1],,,,,,,
{16}6,5,6,,3,,2/4,,1-5[8:1],,4,,6,,,,
{16}7,5,7,,3,,2/4,,1-5[8:1],,,,1/7,,,,
{8}7pp2[1:1],,7,,,3^6[8:3],,3,
{4},,1-4[8:1]/8-5[8:1],,
{8}3/6,6,4,5,3/5,3,4,2,
{8}5/7,7,5,6,2/4,2,4,1,
{8}1/8,2/7,3/6,,,2qq7[1:1],,2,
{2},E1f,
{4}4xh[8:1]/6xh[8:1],5,2-5[8:1]/8-5[8:1],2/8,
{6}6xh[12:1]/5xh[12:1],4xh[12:1]/5xh[12:1],3xh[12:1]/4xh[12:1],1x/2x,1x/8x,7x/8x,
{8}6-1[8:1],6,4,4,3-8[8:1],3,5,5,
{4}6z2[2:1],6,3^6[8:1],3,
{8}7,7,5,6,2,2,4,3,
{8}7,5,7,,2,4,2,,
{4}7x/E5/B4/B5,6x/E4/B3/B4,5x/E3/B2/B3,
{32}5x,6x,7x,8x,,,,,
{8}3h[4:1],,4,,6,6,7/5,,
{8}6h[4:1],,5,,3,3,4/2,,
{8}1h[8:3],4,5,6,7h[8:3],2,3,4v2^5-1[2:1],
{2},7-3b[8:1],
{8}2,2,4,3h[4:1],,5,6,7,
{8}3h[8:1],5,3h[8:1],1,3h[8:1],4,3h[8:1],7,
{8}2-5[8:1],2,8-4[8:1],8,1-5[8:1],1,7,7,
{8}8qq5[2:1]*pp1[3:1],,,,,,,5xh[1:0]/6xh[1:0],
{8}4,7,3xh[1:0]/4xh[1:0],2,5,1xh[1:0]/2xh[1:0],1xh[1:0]/2xh[1:0],8,
{16}3,,7xh[1:0]/8xh[1:0],,1/6,,1,2,3,4,5,,5xh[1:0]/6xh[1:0],,5xh[1:0]/7xh[1:0],,
{8}8,3,1,1xh[1:0]/2xh[1:0],3,4,5,6,
{8}7xh[8:1]/8xh[8:1],,1q5[8:1]/6-1[8:1],,1/6,,2/8,2xh[4:1]/8xh[4:1],
{4},2xh[8:1]/8xh[8:1],2xh[4:1]/8xh[4:1],,
{16}2xh[1:0]/8xh[1:0],,8,7,6,5,4,,3/4,,2,,4/5,,5xh[4:1]/6xh[4:1],,
{8},,4/7,4xh[1:0]/3xh[1:0],2,5,5,3,
{8}1xh[1:0]/2xh[1:0],1xh[1:0]/2xh[1:0],8-4[8:1],7,6/8,,2/6,1xh[8:1]/7xh[8:1],
{8},2,2/8,3xh[1:0]/4xh[1:0],5,4,6,7xh[8:1]/8xh[8:1],
{8},1,2,3xh[8:1]/4xh[8:1],,5,6,4,
{8}5xh[4:1]/6xh[4:1],,,5xh[4:1]/6xh[4:1],,,5xh[4:1]/6xh[4:1],,
{8},4/7,3,2,1/7,6,5,3xh[1:0]/4xh[1:0],
{8}5,3,6,4xh[1:0]/5xh[1:0],6,4,7,5xh[4:1]/6xh[4:1],
{8},,7,5,8,1/2,3,4w8b[8:5],
{1},
{4}2/4,5/7,1s5[8:1]/8z4[8:1],1/8>8[4:5],
{1},
{2},1-6[8:1]/2-5[8:1],
{8}2-5[8:1]/8-5[8:1],,2/8,,4/6,3,2,1pp4[8:3]/5,
{8},5,6,7,8^5[8:1],,,,
{8}4-7[8:1]/2^5[8:1],,2/4,,6,5,4,3/7V58[4:1],
{16},,4,,3,,2,,7,1,7,1,7,,,,
{8}6-1[8:1]/2-5[8:1],,2/6,,4,3,2,1/5pp8[8:5],
{16},,4,,,3,,,2,,,,1,,,,
{16}5/6,,,,4/7,,,,3,5,3,5,3,,,,
{16}4/3,,,,5/2,,,,6,4,6,4,6,,,,
{16}5/6,,,,4/7,,,,3,5,3,,3,,,,
{16}4/3,,,,5/2,,,,6,4,6,,6h[8:1],,,,
{8}5/7,,4/8,,3,3,5,3,
{8},2/4,5,6,7,7,5,,
{8}2/4,,1/5,,6,6,4,6^1[8:3],
{16},,2,,,3,,,4,,,,,,,,
(99)
{1},
(140){1},
{16},,,,,4h[16:5]/5h[16:5],,,,,,,,,,,
{1}4bqq1[8:5]/5bpp8[8:5],
{16}2x/7x,,,,B1,B8,B2,B7,E2,E8,E3,E7,A1,A8,A2,A7,
{16},,,,,4h[16:19],,,,,5h[8:7],,,,,,
{4},,,6-8[8:1],
{4}8v1[4:1],1-3[8:1],3,1,
{4}1/3,8,8/6-3[8:1],,
{4}1h[4:1],8h[4:1],1,2h[4:1],
{4}1,7h[4:1],8,E1f,
{8}4,4,5,5,3/4,1x,1x,,
{16}8h[16:3],,,7h[16:3],,,6,,6h[2:1],,,,,,,,
{8}4,4,5,5,3/4,1x,1x,,
{16}8h[16:3],,,7h[16:3],,,6,,6-1[8:1],,,,,,,,
{8}4,4,5,3/4,1x,1x,6x,6x,
{8}7/8,7/8,1/6h[2:1],,4,4,4,,
{8}2,2,8,8,1/7-1[8:1],,3,,
{8}2,2,8,8,1/7-3b[8:1],,,,
{8},,3<5[4:1],,,,,6,
{8}4,5,3,4,1x-3[8:1],1x-7[8:1],1x-4[8:1],1x-6[8:1],
{8}1x-5[8:1],1x,1x,,7,7,8,8,
{48}2,,,1,,,2,,,1,,,3,,,,,,,,,,,,1x/8x,,,,1x/8x,,,,1x/8x,,,,2x/7x,,,,,,,,,1,,,
{16}7,8,7,8,6,,,,1/8,,2,1,2,,7/8,,
{1}1/6p4[2:1],
{16}3h[16:3],,,4h[16:3],,,5,,5,,,,6/3<6[2:1],,,,
{4},,,E1,
{4}E3/E7,C1h[8:1],D3,D2,
{8}D1,,D8,,D7,4x,B6,,
{4}B7,B8,B1,B2,
{8}B3,,B6,,C1,5x,,,
{4}7/8,6,2/1<6[8:1],3,
{4}1/2,3,7/8>3[8:1],6,
{8}7/8,1,1,8,1/2,8,8,1>4[8:1],
{8},1/8<5[8:1],,1,1,1,7b/3q5[2:1],,
{8},,,,,6,7,7,
{16}8h[16:3],,,7h[16:3],,,6,,6h[4:1],,,,1b,,,,
{8}2-4[8:1]/8-6[8:1],,2-5[8:1]/8-5[8:1],,2x/8x,,3/7,3/7,
{8}8/2>5[8:1],1,6h[4:1],,8x,,7/1>4[8:1],1/7,
{8}6<1[8:1],,3h[4:1],,1x,,7/8,6,
{8}1/8,7,1/2-6[8:1],8,7x-3[8:1],,,,
{16}2b/6xh[16:3],,,7h[16:3],,,8,,1/2,,3,,7/8,,6,,
{16}1h[16:3],,,2h[16:3],,,3,,1b/7b,,,,2/8-5[8:1]*-6[8:1],,,,
{4}8,1/2-4[8:1]*-5[8:1],2,7h[16:3]/8h[16:3],
{4}1x/6x,1h[16:3]/2h[16:3],3x/8x,6-8[8:1],
{4}8v1[4:1],1-3[8:1],3,E5,
(43.6)
{1},
(190)
{4}D3,D3,D3,D3,D3,D3,D3,,,,,
{6},
{4}D3,D3,D3,D3,D3,D3,D3,,,,,
{32}D3,,,,,,,D3,,,,,,D3f,,,,,,,,,,,,,,,,,,,,,,,,
{64},
(150)
{2},C,
{4}A8,A1,,7p2[8:1]/3^6[8:1],
{16}D7/A6/D6/A5/D5/A4/D4/A3/D3/E6/E5/E4/B3/B4/B5/B6,,,,8xb/1xbh[8:1],,,,7^6-3b[8:1],,8,8,,,,,
{4}1b-4[8:1]/2b,1b/8b-5[8:1],8b/7b-3-6b[8:1],E2,
{16}1b,,6,4,5,,5,,5/3,,5,,5/6,,5x,,
{8}5/8,5,2/5,5,5/8,5,2/5,5x,
{16}4/6,,7,1,8,,8,,2/8,,8,,5/8,,8,,
{8}4/8,8,5/8,5,4pp5b[8:1]/7pp1b[8:1],3/6,,,
{16}8xb,,3,5,4,,4,,4/6,,4,,4/3,,4x,,
{8}4/1,4,7/4,4,4/1,4,7/4,4x,
{16}5/3,,2,8,1,,1,,7/1,,1,,4/1,,1,,
{8}1h[8:1]/5h[8:1],,8h[8:1]/3h[8:1],,4v5b[8:1]/7v8b[8:1],3/6,,,
{24}7,6,7,6,7,6,7,,,,,,2,3,2,3,2,3,2,,,,,,
{24}7,6,7,6,7,6,7,,,,,,2,3,2,3,2,3,2,,,,,,
{4}6,8pp2[4:1]*qq6[4:1],,,
{8}Ch[4:1],,,,7x-2[8:1]/2xv5[8:1],1x/8x,A7f,,
{8}3b/8b,,1b/6bpp3[8:3],,2,2,2,,
{4}1h[4:1],4h[4:1],5h[4:1],8v5b[8:1]*^3[8:1],
{4}8^6[8:1],4pp4[4:1],4-8[8:1]*-1[8:1],,
{4}D6f/A5/A6/E6/B5/B6,D2f/A1/A2/E2/B1/B2,D8f/A7/A8/E8/B7/B8,Cf/B3/B4/B5/B6,
{4}1,7,5,E3f/E2/B3/B2/E4,
{8}8h[8:3],,,,1-3[8:1]/7-5[8:1],2b/8b,1b/7b,,
{2}8V26[8:1]/2v4[8:1],7V15[8:1]/1v3[8:1],
{24}8,,,8,,,6,,,1,,,3,,,A6,A5,A4,A3,,,,,,
{8}2,1/4,2,1/3,2-5[8:1],1/4,,,
{16}4/7,,8,8,5,5,7,,6-3[8:1],,4/8,,,,,,
{16}2x,1x,8x,7x,6x,7x,8x,1x,2x,1x,8x,7x,6x,7x,8x,1x,
{8}2x/Cf,,,,2^4[8:1]/7^5[8:1],1/8,2x/A7f,,
{8}2-6-3-5[8:3],4/1h[8:5],,,,,6,6,
{8}7V58-4[8:3],5/8h[8:5],,,,,B3,,
{16}1^4[8:1]/7^4[8:1],,8,8,,,,,2^4[8:1]/6^4[8:1],,8/C,,,,,,
{8}7^2[8:1],1,7/4-1[8:1],,4b/5-8[8:1],,5b,,
{8}A1/A2/D2/A3/D3f/A4/D4/E3/E2/B3/B2/E4,,6-3[8:1],6,1^4[8:1],1,5^8[8:1],5,
{8}2q6[8:1],2,7V16-3[8:3],7,1h[2:1],,,,
{8}2,1q6[8:1]/3-6[8:1],4/8,1V75[8:1],,,,4,
{8},2/6,2^7[8:1]/6^3[8:1],,2b/6b,,1-4[8:1]/5v8[8:1],,
{16}1/5,,,,7h[8:1]/3h[8:1],,,,1/8,,2,2,4,,3/5,,
{16}3/5,,2/6,,2h[8:1]/6h[8:1],,,,1/7,,6,6,4,,3,,
{16}2,6,4,5,3,4,3,6,4-2[8:1]*-6[8:1],7,1,,,,,,
{4}A8f/A1/A7/D1/D8/E8/E1/B1/B7/B8,D3f/A2/A3/E3/B2/B3/D7/A6/D6/E6/E7/B6,4-2b[8:1]/5-7b[8:1],D5f/A4/E4/A5/E6,
{8}8b/1bh[8:5],,,,,4,,7,
{4}5,8h[4:1],5,4v7^6-4qq2-4^5[4:3],
{1},
{16}8v5[8:1]*v3[8:1],,,,,,,,2/6,,7x,1x,4x,,,,
{4}5h[2:5],Chf[1:2],,,
{1}B1,
{2}B8,1x^4[4:1],
{4}6,7,7-2b[8:1]/5v2b[8:1],A5f,
{1}2-7[2:3]/3-6[1:1],
{16},,,,,,,,,,,,4,,,3,
{4}3-6[2:1],,2-7[4:3],,
{16}4,,,,,,,5,5,,,,4/6,,,,
{32}3h[4:1]/8h[4:1],,,,,,,,,4x/7x,5x/6x,,,,,,6h[4:1]/1h[4:1],,,,,,,,,5x/2x,4x/3x,,,,,,
{32}2bh[4:1]/8bh[4:1],,,,,,,,,3bx/7xb,4bx/6bx,5bx,,,,,7bh[4:1]/1bh[4:1],,,,,,,,,6bx/2xb,5bx/3bx,4bx,,,,,
{16}3x,4x,5x,6x,7x,6x,5x,4x,3x,4x,5x,6x,7x,6x,5x,4x,
{2}3xh[4:3],B2,
{1}8-4[2:1],
{8}2b/B6f,8b/B4f,1b/B5f,7b/B3f,2bq6[8:1]/5b,1b/7b,E1,,
{16}1-4[8:1]/7-4[8:1],,8,8,,,,,2-4[8:1]/6-4[8:1],,7/E1,,,,,,
{8}3v8[8:1]/4-7[8:1],2/5,3-1[8:1],,3b/5-8[8:1],6b,5b,,
{8}A1/A2/D2/A3/D3f/A4/D4/E3/E2/B3/B2/E4,,6-3[8:1],7,1^4[8:1],8,5^8[8:1],6,
{8}2q6[8:1],1,7V16-3[8:3],8,1h[2:1],,,,
{8}2,3p6[8:1]/1-6[8:1],4/8,1V35[8:1],,,,8,
{8},7/3,7^2[8:1]/3^6[8:1],,7b/3b,,8-5[8:1]/4v1[8:1],,
{16}4-2[8:1]/8,,,,4/6,,,8,8q4[8:1]/3^6[8:1],,,,3/8,,,,
{8}5,4/6,2/8,5/7,6bh[8:1]/7bh[8:1],,2bh[8:1]/3bh[8:1],,
{16}1-5[16:1],,8,1,7-4[8:1],,6,,3-1[8:1],,2,,6,,6,,
{8}5-1[8:1],3,3/5-7b[8:1],4-2b[8:1],5-1b[8:1],4qq8b[8:3],A5f,A4f,
{8},,1v6[8:1],1v4[8:1],,,7-2v4[4:1],7,
{8}3,3,1,1,2-7[8:1]/6-3[8:1],4/8,2/6,,
{8}1-7[8:1],1v4[8:1],,,6,,6/7,6^3[4:1]/7,
{16},,7,,8,,1,,2w6[8:1],,,3x,2x,,,,
{1}8bh[4:3]/4h[4:3],
{32}A3,D3,A2,D2,A1,D1,A8,D8,A7,D7,A6,D6,A5,D5,A4,D4,A3,D3,A2,D2,A1,D1,A8,D8,A7,D7,A6,D6,A5,D5,A4,D4,
{32}A3,D3,A2,D2,A1,D1,A8,D8,A7,D7,A6,D6,A5,D5,A4,D4,A3,D3,A2,D2,A1,D1,A8,D8,A7,D7,A6,D6,A5,D5,A4,D4,
{32}A3,D3,A2,D2,A1,D1,A8,D8,A7,D7,A6,D6,A5,D5,A4,D4,A3/E6/B5/B6/A5/A6/D6,,,,,,,,,,,,,,,,
(151)
{1},
(140)
{2}E8,B8,
{2}B1,E2,
{2}E8,B5,
{2}B1,E4,
{2}B7,B5,
{2}B1,E2,
{2}E8,B8,
{2}B1,E2,
{8}E8,4,4,,B8,3,3,,
{8}B1,6,6,,E2,4,4,,
{8}E8,3,3,,B5,6,6,,
{8}B1,4,4,,E4,5,4/5,,
{8}B7,4,4,4,B5,6,6,6,
{8}B1,3,3,3,E2,6,6,6,
{8}E8,4,4,4,B8,2,2,2,
{8}B1,7,7,7,E2,3/4,3/4,,
{8}E8/1,1,,3,B8,4,4,,
{4}B1/5,4/6,E2,4/6,
{8}E8/3,3,,4,B5,6,6,,
{4}B1/7,3/5,E4,4/6,
{4}B7/5x,4x,B5/3x,2x,
{4}B1/6x,7x,E2,3/5,
{8}E8/4,4,,3,B8,4,4,,
{4}B1/5,4/6,E2,3/5,
{8}E8/4h[4:1],,,3,B8/3h[4:1],,5,,
{8}B4/7h[4:1],,,8,E2/8h[4:1],,5,,
{8}E7/4h[4:1],,,3,E6/3h[4:1],,5,,
{8}E5/7h[4:1],,,8,E4/8h[4:1],,1,,
{8}E6/3h[4:1],,,2,B8/2h[4:1],,6,,
{8}B3/7h[4:1],,,6,E3/6h[4:1],,4,,
{8}B7/2h[4:1],,,3,B8/3h[4:1],,5,,
{8}B4/6h[4:1],,,7,B3/7h[4:1],,4,,
{8}E8/2,2,,3,B8/3,4,4,5,
{8}B1/5,,4/6,,E2/7,7,5,,
{8}E8/4,4,,2,B5/2,3,3,4,
{8}B1/4,,3/5,,E4/6,6,4,,
{8}B7/2,2,1,1,B5/8,8,7,7,
{8}B1/6,,3/5,,E2/6,6,5,,
{8}E8/3,3,,4,B8/4,5,5,6,
{8}B1/6,,5/7,,E2/8,8,1>4[4:1],,
{4}E6,,B8/4,5<8[4:1],
{4}B4,,E2/8,4>1[4:1],
{4}E6,,B5/1,8<5[4:1],
{4}B1,,E4/5,4-1[4:1],
{4}E6,,B8/1,7p2[4:1],
{4}B1,,E4/2,1V35[4:1],
{4}E8,,B8/5,5-8[4:1],
{2}B4,E2/8x,
{4}E8/3h[8:1],3h[8:1],B8/4h[8:1],4h[8:1],
{4}B1/5h[8:1],5h[8:1],E2/6h[8:1],6h[8:1],
{4}E8/4h[8:1],4h[8:1],B5/3h[8:1],3h[8:1],
{4}B1/6h[8:1],6h[8:1],E4/5h[8:1],5h[8:1],
{4}B7/4h[8:1],4h[8:1],B5/3h[8:1],3h[8:1],
{4}B1/6h[8:1],6h[8:1],E2/4h[8:1],4h[8:1],
{4}E8/3h[8:1],3h[8:1],B8/4h[8:1],4,
{16}B1/5x,,,3x/6x,,,2x/7x,,E2/8w4[8:1],,,,8b,,,,
{8}E8,4,5,3,B8,3,6,2,
{8}B1,7,5,6,E2,4,5,3,
{8}E8,3,4,1,B5,6,4,7,
{8}B1,7,5,6,E4,3,5,4,
{8}B7,1,4,3,B5,6,4,8,
{8}B1,8,4,5,E2,3,4,2,
{8}E8,3,5,4,B8,3,6,2,
{8}B1,5,4,7,E2,5,4/5,,
{8}E8/1,1,,2,B8/2,3,4,5,
{8}B1/6h[4:1],,4,,E2/5,5,3/4,,
{8}B6/2b,3b,4b,5,B8/5,4,4,6,
{8}B1/6,,4/7,,B2/6,6,5/4-1[8:1],,
{8}E7/4x,,2,2,B6/3,3,4,5,
{8}B1/6h[4:1],,4,,E4/8,8,1-4[8:1],,
{8}E6/1b,,4/6,,B5/2,2,2/3,,
{8}B4,B4,B4,,,,,,
{1},
{1},
