&title=天火明命
&artist=削除
&first=-0.05
&lv_5=14
&des_5=Luo1
&inote_5=
(155){4},,6/5,{12}5/4,,3/4,
{24},,,{8}2,1,8,{12}7,6,5,{48}4x,,,3x,,,{16}2x,1x,
{32}8x,7x,6x,5x,4x,3x,2x,1x,{4}8b-4[8:1],{2}8>7[4:13],
,,,2q3[2:1],
,4h[8:3],
{8},3,2,1,8-5[8:1]/7-4[8:1],6,{4}8/7-3[8:1],
{16},,1,8,7,6,5,4,{8}3-7[8:1],1-5[8:1],3,1,
,8/6,7/1,2/8,{4}1q5[8:1],{8}1/6-2[8:1],7,
8/6x,{24}7,6,5,{4}4/3xh[8:1],{8}1x/2x,{24}2x/1x,3/8,7/4,{8}6/5,7V58[4:1],
{2}4-1[8:1]*-1[8:1],{4}7h[4:1],1b,
{8}8<5[4:1],1,2,3,4>1[4:1],4,6,7,
8h[8:3],7,6,5-3v2[4:1],,7,{4}7h[8:1],
{8}6q2[8:1],1,2,3,4q1[8:1],5,6x,7x,
8xh[8:3],2,3,4-2v1[4:1],,7,{4}7h[8:1],
{8}6,5/1,2,3/7,6,5/1,2,3/7,
4-8V26[8:3],8,4,7h[4:1],{16},,,,8,7,6,5,
{8}4/8,6/2,3,4/8,7,6/2,3,4/8,
2b>4-1[4:1]/6b<8-5[4:1],6b/2b,,,,Ch[8:1],{4}B7/E7/B6/E3/B2/B3,
{16}7,6,5,4,1,2,3,4,6,6,,1h[16:3]/8h[16:3],,,,,3,
4,5,8,7,6,5,3,3,,,1/8,,4,5,3,
7,6,5,4,1,2,3,4,8,8,,6/2,,5,4,5,
2,2,4,4,5,5,7,7,3,5,2,7,4,6,1,8,
2,3,4,5,8,7,6,5,3-8[8:1]/4-8[8:1],4/3,,4/3,,,,,7,
6,5,4,1,2,3,4,6/5p1[8:1],5/6,,5,,8,7,6,
5x/2x,3/6,4/7,8/5,6,7,8,1,2h[16:3]/8v5[8:1],8,,8,,1x,2x,3x,
{8}4b,6b/2bqq5[4:1],{16},,,,E6,E7,E8,D1,{32}D2,D3,D4,D5,D6,D7,D8,D1,
{8}4xh[4:1]/D2f,,,1<5[4:1],{4}3h[8:1],3h[8:1],
{24}3x,4,3,4,3,4,{8}3,{16}5,5,,,{8}8/1,{16}7/2,3/6,{8}5/4,
6h[16:1],6h[16:1],{32}3x,4x,{16}3x,{32},5x,4x,5x,{8}4x,3/8,{32}2x,1,2,1,{8}2,
{16}8-4[8:1],4,6,2,{8}8,{16}1-5[8:1],5,3,7,{8}1,{16}8,7,{8}6/2,
{16}4/5,3,2,1,{8}8/7,{16}5/4,6,7,8,{8}1/2,{16}3,8,4,7,
{24}5x,6,5,6,5,6,{8}5,{16}7,7,{8}1-5[8:1],4,{16}1,6,{8}6,
4/7,6/3,{32}2x/5x,3x/6x,{16}4x/7x,{32},,4x/7x,3x/6x,{8}2x/5x,8/1,{32}7x/2x,3x/6x,{16}5x/4x,,,{2}3xqq5[4:7],
7xqq1[8:7],
{48}A8f,B8,C,B4,{4},,,{16},,{24},{4}7b,
{16},,,,,,,,8/4,3/7,6/2,5/1,
{4}4b/8-4[8:1],{16}8,,,6,{8}6,4/3>8[8:1],,3,
,7-3[8:1],3-7[8:1],7V51[4:1],1,1-5[8:1],2,3,
{16}4,,,3/7,{8}2>5[8:1]/6<1[8:1],5/1,{4}2x/6x,{16}4x,3,2,1,
8/4,5/1,2/6,3/7,8,1,2,3,{8}4/1,{16}2,5,3,6,4,7,
{4}5w1[8:1],{16}5x,,,7x,{8}3x,1-5[8:1]/8-4[8:1],,1/8,
,3-8[8:1],6-1[8:1],3,{4}6,{8}7<4[8:1]/8>3[8:1],6/1,
{4}A8f/A7f/D8,{8}1/2>5[8:1],3/8-4[8:1],2b-6-2b[4:1],8,{4}2b,
{8}8b-3[8:1],7,6/8b-5[8:1],7,{4}8b/2,{16}5x/1x,6/2,3/7,4/8,
{4}5b/1-5[8:1],{16}1,,,3,{8}3,5/6<1[8:1],,6,
,2-6[8:1],6-2[8:1],2V48[4:1],8,8-4[8:1],7,6,
{16}5,,,6/2,{8}7<4[8:1]/3>8[8:1],4/8,{4}7x/3x,{16}5x,6,7,8,
1/5,4/8,7/3,6/2,1,8,7,6,{8}5/8,{16}7,4,6,3,5,2,
{4}4w8[8:1],{16}4x,,,2x,{8}6x,8-4[8:1]/1-5[8:1],,8/1,
,6-1[8:1],3-8[8:1],6,{4}3,{8}2>5[8:1]/1<6[8:1],3/8,
{4}2b/1b,{8}8b-3[8:1],7,6/8b-5[8:1],7,8b/2,1,
{16}8,7,1,6,2,5,3,4,{32}3,2,1,8,7,6,5,4,{4}Cf,
{16}2b,5,4,6,{8}5,{16}7b,4,5,3,{8}4,{16}1b,4,3,5,
{8}4,{16}8b,5,6,4,{8}5,{16}3b,4,2,5,1,6,8,7,
8b,1,2,3,4,5,1b,8,7,6,5,4,1b,3,2,4,
3,5,4b,6,5,7,6,8,1x>5[8:1],B1,C,B5,,,,,{2}3h[4:1]/7h[4:1],
6h[4:1]/2h[4:1],
{8}8/7,6/5,4/3,2/1,{16}8,7,6,5,{4}4V68[4:1]/8V24[4:1],
{2}4b/8b,4/8b-4b[8:1],
{4}1b<6[8:1]*>4[8:1],1bw5[8:1],1b,7xh,
{2}4h[2:1],{8}5,{16}6/3,7/2,{4}1s5[8:1]/8z4[8:1],
{1}1x/8x,
,8-2-5-1-7-4-8[4:5],
{8}2xh[8:3],,,,,3,4,5,
1v3[8:1]/8v6[8:1],3V15[4:1]/6V84[4:1],{16},,,,,,E3,E2,E1,E8,E7,E6,
{4}7b/C/B4/B3,2b/C/B6/B5,8b/B4/B5/C,{8}7/3,6,
{16}5/1,2,3,4,5/1,8,7,6,5/1,2,3,4,5/1,8,7,6,
1x,5x,1,4,1,3,1,2,{32}1,8,7,6,5,4,3,2,1,8,7,6,5,4,3,2,
{4}1b-5[8:1],{8}1/8,7,{4}6-2[8:1],{8}6/5,4,
{16}3/2x,,,8,{8}1,7/6,{4}5/4,{16}2,8,4,5,
{4}1>4[8:1],{8}8,7,6,{24}5x/4x,3/6,2/7,{8}1>4[8:1]/8<5[8:1],2/7,
1bpp4[4:1]/8bqq5[4:1],,,,,1,2,3,
5/4h[2:1],6,{4}7h[4:1],{16},,5,6,4,5,3,4,
{8}2-6[8:1],5,2-8[8:1],7-5[8:1],2V48[4:1],7bx,{4}2bx,
{8}5,5,5,5,5/A6,5/A7,5/A8,5h[8:7]/A1,
{16}E3,E4,E5,E6,E7,E8,E1,D2,{32}D3,D4,D5,D6,D7,D8,D1,D2,{4}D3f,
{16}8x/2x,7x,6x/2x,5x,{8}4x/2x,{16}1x/7x,2x,3x/7x,4x,{8}5x/7x,{16}8x/2x,7x,6x/2x,5x,
{8}4x/2x,{16}1x/7x,2x,3x/7x,4x,{8}5x/7x,{16}4,4,6,6,2,2,4,4,
8,1,2/6,3,{8}4/6,{16}1,8,7/3,6,{8}5/3,{16}1/7,2,3/7,4,
{8}5/7,{16}8/2,7,6/2,5,{8}4/2,{4}1w5[8:1],1bx,
3h[4:1],4h[4:1],5h[4:1],6h[4:1],
{8}1h[8:1],8h[8:1],3h[8:1],4h[8:1],{16}1,8,1,8,{4}6-2[8:1]/5-1[8:1],
5b/6b,3-7[8:1]/4-8[8:1],4b/3b,8x/1>4[8:1],
1b/8<5[8:1],1>5[4:1]/8bp6[4:1],{24},E2,E3,E4,E5,E6,,,,,,,{4}7b/2b,
{16}1h,5,3h,7,5h,1,3h,7,1h,5,7h,3,
{1}1h,
E
