&title=HIGHER
&artist=Tobu
&first=0.1
&des=这32.5有力气
&lv_6=14
&inote_6=(130)
{16}
2,,,3,,,4,,,5,,,6,,,,7,,,6,,,5,,,4,,,3,,,,2,,,1,,,8,,,7,,,6,,,,7,,,8,,,1,,,2,,,3,,,,
{16}
2/4,,,3/4,,,3/5,,,4/5,,,4/6,,,,7/5,,,6/5,,,6/4,,,5/4,,,5/3,,,,
{16}
2/8,,,1/8,,,1/7,,,8/7,,,8/6,,,,6/8,,,7/8,,,7/1,,,8/1,,,8/2,,,,
{16}
1h[8:1],,8,1h[8:1],,6,1h[8:1],,4,1h[8:1],,6,1,,2/7,,
{16}
8h[8:1],,1,8h[8:1],,3,8h[8:1],,5,8h[8:1],,3,8,,7/2,,
{16}
1h[8:1],,6,3h[8:1],,6,5h[8:1],,6,3h[8:1],,6,1,,2/7,,
{16}
8h[8:1],,3,6h[8:1],,3,4h[8:1],,3,6h[8:1],,3,8,,7/2,,
{16}
3h[8:1],,1,2h[8:1],,4,3h[8:1],,8,1h[8:1],,4,2,,3/6,,
{16}
6h[8:1],,8,7h[8:1],,5,6h[8:1],,1,8h[8:1],,5,7,,6/3,,
{16}
4h[8:1],,5,8h[8:1],,7,4h[8:1],,5,2h[8:1],,1,4,,3/6,,
{16}
5h[8:1],,4,1h[8:1],,2,5h[8:1],,4,7h[8:1],,8,5,,6/3,,
(32.5)
{64}
1-3[32:1],,,1-7[32:1],,,1-4[32:1],,,1-6[32:1],,,1-5[32:1],,,,
{64}
1,,,1,,,1,,,1,,,1,,,,
{64}
8-6[32:1],,,8-2[32:1],,,8-5[32:1],,,8-3[32:1],,,8-4[32:1],,,,
{64}
8,,,8,,,8,,,8,,,8,,,,
{64}
1-5[32:1],,,1-7[32:1],,,1-3[32:1],,,1-6[32:1],,,1-4[32:1],,,,
{64}
1,,,1,,,1,,,1,,,1,,,,
{64}
5-1[32:1],,,5-3[32:1],,,5-7[32:1],,,5-2[32:1],,,5-8[32:1],,,,
{64}
5,,,5,,,5,,,5,,,5>2[32:1],,,,
{64}
1h[64:3],,,8h[64:3],,,3h[64:3],,,7h[64:3],,,5,,,,6h[64:3],,,5h[64:3],,,7h[64:3],,,2h[64:3],,,4<7[32:1],,,,
{64}
8h[64:3],,,1h[64:3],,,6h[64:3],,,2h[64:3],,,4,,,,3h[64:3],,,4h[64:3],,,2h[64:3],,,7h[64:3],,,5qq1[32:2],,,,
{64}
1h[64:3],,,8h[64:3],,,7h[64:3],,,6h[64:3],,,5,,,,
{64}
8h[64:3],,,7h[64:3],,,6h[64:3],,,5h[64:3],,,4pp8[32:2],,,,
{64}
8h[64:3],,,1h[64:3],,,2h[64:3],,,3h[64:3],,,4,,,,
(120)
{16}
2h[16:3],,,
(110)
{16}
3h[16:3],,,
(115)
{16}
4h[4:1],,,,5,,,,
(110)
{16}
2h[16:1]/7h[16:1],,
(120)
2h[16:1]/7h[16:1],,
(32.5)
{64}
1-3[32:1]/5,,,1-7[32:1],5,,1-4[32:1],,5,1-6[32:1],,,1-5[32:1]/5,,,,
{64}
1/5,,,1,5,,1,,5,1,,,17,,,,
{64}
1-7[32:1]/5,,,1-3[32:1],5,,1-6[32:1],,5,1-4[32:1],,,1-5[32:1]/5,,,,
{64}
1/5,,,1,5,,1,,5,1,,,1/7h[64:1],,7h[64:1],,
{64}
8-6[32:1]/4,,,8-2[32:1],4,,8-5[32:1],,4,8-3[32:1],,,8-4[32:1]/4,,,,
{64}
8/4,,,8,4,,8,,4,8,,,82,,,,
{64}
3/6-4[32:1],,,7-4[32:1],3,,8-4[32:1],,3,1-4[32:1],,,3,,,,,,,,,,,,,,,,2,,2,,
{64}
1-7[32:1]/5,,,7-2[32:1],5,,2-6[32:1],,5,6-3[32:1],,,5/3-5[32:1],,,,
{16}
,,,6,
{64}
6-4[32:1]/2,,,4-7[32:1],2,,7-3[32:1],,2,3-8[32:1],,,2/8-2[32:1],,,,
{32}
,,,,,,3h[64:1],3h[64:1],
{64}
2b-7[32:1],,,7b-2[32:1],,,6b-3[32:1],,,3b-6[32:1],,,1bs5[16:1],,,,
{16}
,,,,
{64}
2b-8[32:1],,,8b-6[32:1],,,6b-4[32:1],,,8b-4[32:1],,,6b-2[32:1],,,,
{4}
,
(130)
{16}
1b/7b,,4/3,3,8h[8:1],,5,,1/2,,4/6,6,2h[8:1],,7,,3/5,,1/8,1,6h[8:1],,2,,4/6,,78,7,2h[8:1],,4,,
{16}
5/3,,8/7,7,4h[8:1],,1,,5/6,,8/2,2,6h[8:1],,3,,7/1,,5/4,5,2h[8:1],,6,,8/2,,34,3,6h[8:1],,8,,
{16}
2/7,,3,4,2h[8:1]/5,,6,,4/7,,8,1,2/7h[8:1],,3,,
{16}
2/7,,3,4,2/5h[8:1],,6,,4/7,,8,1,2h[8:1]/7,,3,,
{16}
4/6,,5,5,4/6,,3/7,,2/8,,1,1,2/8,,3/7,,
{8}
6h[8:1],4,8h[8:1],4,6h[8:1],2,4h[8:1],
{32}
8,,,
(32.5)
{16}
2bpp4[16:1],2pp3[16:1],2pp5[16:1],2pp6[16:1],,,,,
{16}
7qq5[16:1],7qq6[16:1],7qq4[16:1],7qq3[16:1],,,,,
{16}
1pp3[16:1],1qq7[16:1],1pp2[16:1],1qq8[16:1],,,,,
{16}
5pp7[16:1],5qq3[16:1],5pp6[16:1],5qq4[16:1],,,,,
{64}
1-3[32:1],,,1V38[16:1],,,1V37[16:1],,,1V36[16:1],,,1V35[16:1],,,,
{4}
,
{64}
8-6[32:1],,,8V61[16:1],,,8V62[16:1],,,8V63[16:1],,,8V64[16:1],,,,
{4}
,
{64}
3-1[32:1],,,3V14[16:1],,,3V15[16:1],,,3V16[16:1],,,3V17[16:1],,,,
{4}
,
{64}
5h[64:3],,,4h[64:3],,,3h[64:3],,,2h[64:3],,,1,,,,
(120)
{16}
2h[16:3],,,
(110)
{16}
3h[16:3],,,
(115)
{16}
4h[4:1],,,,5,,,,
(110)
{16}
2h[16:1]/7h[16:1],,
(120)
2h[16:1]/7h[16:1],,
(32.5)
{64}
1-4[32:1]/5,,,5,4-1[32:1],,5,,1-6[32:1],5,,,6-1[32:1]/5,,,,
{64}
1/5,,,5,4,,5,,1,5,,,6/7,,,,
{64}
8-5[32:1]/4,,,4,5-8[32:1],,4,,8-3[32:1],4,,,3-8[32:1]/4,,,,
{64}
8/4,,,4,5,,4,,8,4,,,3/4h[64:1],,4h[64:1],,
{64}
4-2[32:1],,,7,2-6[32:1],,7,,6-4[32:1],7,,,4-8[32:1]/7,,,,
{64}
4/7,,,7,2,,7,,6,7,,,47,,,,
{64}
1-4[32:7]/5,,,5,1-6[32:5],,5,,1-5[32:3],5,,,1w5[32:1]/5,,,,
{16}
,,,1,
{64}
1-3[32:1]/5,,,5,1-7[32:1]/5,,5,,1-4[32:1]/5,5,,,1-6[32:1]/5,,,,
{64}
1/5,,,5,1/5,,5,,1/5,5,,,1/5,,,,
{64}
8-6[32:1]/4,,,4,8-2[32:1]/4,,4,,8-5[32:1]/4,4,,,8-3[32:1]/4,,,,
{64}
8/4,,,4,8/4,,4,,8/4,4,,,8,4,4,4,
{16}
5-7[32:1]/4-2[32:1],2-6[32:1]/7-3[32:1],3-1[32:1]/6-8[32:1],1/8,
{16}
,,,4/5,
{64}
8bV27[64:3],,,7b-3[32:1],,,3b-6[32:1],,,6b-4[32:1],,,4bw8[32:1],,,,,,,,,,,,,,,,,,,,
(130)
{24}
1b/8b,,,2,3,4,5/6,,,7,,,1/8,,,7,6,5,4/3,,,2,,,
{24}
1/3,,,8,7,6,5/2,,,1,,,7/8,,,1,2,3,4/5,,,7,,,
{24}
1/8,,,2/7,3,4,5/1,,,3/7,,,2/8,,,7/3,6,5,4/8,,,2/5,,,
{24}
1/6,,,7/8,6,5,4/3,,,1/2,,,8/3,,,2/1,3,4,5/6,,,8/7,,,
{32}
81,,,,81,2,3,4,8,,,,8/1,,,,7/2,,,,2/7,3,4,5,7,,,,72,,,,
{32}
8/3,,,,8/3,4,5,6,8,,,,8/5,,,,8/5,,,,
{24}
85,74,36,25,,,1/8,,,
{32}
18,,,,18,7,6,5,1,,,,1/8,,,,2/7,,,,7/2,6,5,4,2,,,,27,,,,
{32}
1/6,,,,1/6,5,4,3,1,,,,1/4,,,,1/4,,,,
{24}
14,25,63,7b/4b,,,,,,
{16}
1b/7b,,2,6,3,5,4,,4,6,3,5,
{48}
2,1,8,7,,,,,,,,,
{16}
6/8,,7,1,8,2,1,,8,2,7,4,5/6,,1/2,,
{16}
3/4,,2,4,3,4,1,,1,8,2,7,
{48}
3,4,5,6,,,,,,,,,
{16}
7/5,,6,4,5,3,4,,5,3,6,1,8/7,87,87,87,
{16}
1b,6,3,7b,5,6,2b,1,4,5b,4,6,3b,8,2,1,
{16}
4b,8,1,5b,2,1,3b,7,8,6b,2,8,3b,5,4,6,
(32.5)
{64}
1b-3[32:1],5,3,1b-7[32:1],5,7,1b-4[32:1],6,3,1b-6[32:1],7,4,1b-5[32:1],5,1,5,
{64}
,,,,
,,,,,,,,1b,,,,
{4}
,,E
。
