&title=遺言
&artist=HIMEHINA
&first=0.56
&des=Dear Myself
&lv_6=14
&des_6=Dear Myself
&inote_6=(82)
{16}1>4[4:1],,,,
,,,,
5V37[4:1],,,,
,,,,
{16}4V26[4:1],,,,
,,,,
5<8[4:1],,,,
,,,,
{16}5>2[4:1],,,,
,,,,
4V61[4:1],,,,
,,,,
{16}3>1[8:1],,,,
5p1[16:3],,,,
4<1[4:1],,,,
,,,,
{16}5b>3[8:1],,3>1[8:1],,
,,,,
4<6[8:1],,6<8[8:1],,
,,,,
{16}5<7[8:1],,3<5[8:1],,
,,,,
1>3[8:1]*<7[8:1],,,,
,,,,
{16}1>4[8:1],,6<8[8:1],,
,,,,
5>2[8:1],,1<7[8:1],,
,,,,
{16}3>8[8:1],,8<5[8:1],,
,,,,
4pp6[16:3]*qq3[16:3],,,,
,,,,
{16}8<5[4:1],,,,
,,,,
8qq5[4:1],,,,
,,,,
{16}1>4[4:1]*pp4[32:7],,,,
,,,,
8<5[4:1]*qq5[32:7],,,,
,,,,
{16}3-7[4:1],,,,
,,,,
3pp7[4:1],,,,
,,,,
{16}6-2[4:1]*pp2[32:7],,,,
,,,,
4w8[8:1],,,,
,,,,
{16}2>6[16:11]*pp4[8:1],,,,
,,,,
4pp6[8:1],,,,
,,,,
{16}7<3[16:11]*qq5[8:1],,,,
,,,,
5qq3[8:1],,,,
,,,,
{16}7>3[16:11]*pp8[16:3],,,,
,,,,
1pp2[16:3],,,,
,,,,
{16}4>8[8:5]*qq4[16:3],,,,
,,,,
2qq2[16:3],,,,
,,,,
{16}5-3[8:1],,5-1[8:1],,
,,,,
2-4[8:1],,8-4[8:1],,
,,,,
{16}3-1[8:1],,1-5[8:1],,
,,,,
6-8[8:1],,8-5[8:1],,
,,,,
{16}2-4[8:1]*-5[8:1],,4-8[8:1],,
,,,,
4-2[8:1]*-8[8:1],,2-5[32:3],,
,,,,
{16}7-5[8:1],,5-3[32:3],,
3-1[8:1],,1-7[32:3],,
8-5[8:1]*-3[8:1],,,,
,,,,
{16}2-4[32:3],,6-4[32:3],,
2-8[32:3],,6-8[32:3],,
2qq5[16:3],,,,
,,,,
{16}2b>4[8:1],,1q5[8:1],,
2<8[8:1],,,,
2<6[4:1],,4<6[32:3],,
,,,,
{16}1>4[8:1]*q5[8:1],,,,
1pp6[8:3],,,,
1v6[8:1],,,,
,,,,
{16}7-5[8:1],,8-4[8:1],,
7-1[8:1],,,,
7>3[4:1],,5>3[32:3],,
,,,,
{16}8V24[8:1],,,,
8V26[8:1]*V27[8:1],,,,
8-4[8:1]*-3[8:1],,,,
,,,,
{16}1>5[4:1],,,,
5<7[8:1],,7>1[8:1],,
1>3[8:1],,3b<6[16:3],,
,6bp1[16:3],,,
{16}7<4[8:1],,8p3[16:3],,
,,,,
,,,,
6<1[8:1],,1<6[8:1],,
{16}2>5[8:1],,5>2[8:1],,
,,8-4[8:1],,
4-8[8:1],,3-1[8:1],,
1V35[4:1],,,,
{16}8pp3[4:3],,7-4[4:1],,
,,,,
,,,,
,,5pp2[8:13],5qq8b[16:25],
{16},,,,
,,,,
,,,,
,,,,
{16},,,,
,,,,
,,,,
,,,,
{24}1-4[8:1],,,4-6[16:1],,4-2[16:1],
{16},,,,
{24}8-5[8:1],,,5-3[16:1],,5-7[16:1],
{16},,,,
{24}1>3[8:1],,,3-5[16:1],,4-7[16:1],
{16},,,,
{24}1-3[8:1],,,3<5[16:1],,4v7[16:1],
{16},,,,
{24}2>3-5[8:1],,,6-2[16:1],,6-8[16:1],
{16},,,,
{24}1>2-4[8:1],,,5-1[16:1],,5-7[16:1],
{16},,,,
{16}3v8[8:1],,7v4[8:1],,
3qq6b[4:1],,,,
,,,,
7<2>7b[1:2]*-5-2[2:1],,,,
{16},,,,
,,,,
,,,,
2V47[1:1],,,,
{16},,,,
,,,,
,,,,
,,,,
(49)
{16}Ch[4:1]/3?qq5[4:1]/6?pp4[4:1],,,,
,,,,
(200)
{16},,,,
,,
(82)
{16}1-3-5-7-1b[4:7],,,,
1-6[8:1],,,,
1>4[8:1],,,,
1-5[8:1],,,,
{16}1v6[8:1],,,,
1>1[8:3],,,,
,,,,
,,,,
{16}5-3-6-1-7[8:13],,,,
4qq6[4:1],,,,
,,,,
,,,,
{16}5qq3[8:1],,,,
,,,,
3-5[8:1],,,,
,,,,
{16}2>7<2b[2:3],,,,
8p4[8:1],,,,
8qq6[8:1],,,,
8V64[8:1],,,,
{16}8-4[8:1],,,,
8q2[4:1],,,,
,,,,
,,,,
{16}1>4-8[4:1],,,,
8V25[4:1],,,,
6-1[8:1],,,,
,,,,
{16}8<6-4[4:1],,,,
4-7-3[4:1],,,,
2-8[32:3],,,,
,,,,
{16}2-5-2[4:1]*-6[8:1],,,,
2V84[4:1],,,,
7-5[8:1],,,,
,,,,
{16}8q8[4:1]*>3[8:1],,,,
8pp6[8:3],,,,
2-5[8:1],,,,
,,,,
{16}1p1[4:1],,6<1[8:1],,
1>1b[2:1]*q1[2:1],,,,
,,,,
,,,,
{16},,,,
,,,,
,,,,
,,,,
{16},,,,
,,,,
,,,,
,,,,
{16}7-1[8:1]/8-4[8:1],,,,
,,,,
2-8[8:1]/1-5[8:1],,,,
,,,,
{16}8-2-4-6[4:1],,,,
,,,,
2pp4[16:3]*-7[16:3],,,,
,,,,
{16}8<5[16:3]/3>1[8:1],,,,
,,,,
,,,,
,,6q2-4v3[2:1],,
{16}7>8-5[8:3],,,,
,,,,
,,,,
2b-6[8:1],,,,
{16}2b>4[8:1],,1q5[8:1],,
2qq2[4:1],,,,
2<6b[32:7],,4pp6[8:1],,
,,,,
{16}1-5-3-1[4:1],,,,
1-5-8-4-2b[8:3],,,,
7V51[8:1],,,,
,,,,
{16}7-5[8:1],,8-4[8:1],,
7v1[8:1],,,,
7>3b[4:1],,6v3[32:3],,
,,,,
{16}5>1[16:3],,,,
5>3-8b[16:3]*>3p7[16:3],,,,
5qq5[16:3]*pp5[16:3],,,,
,,,,
{16}2V46[4:1],,,,
6-8[8:1],,8-2[8:1],,
2-5[8:1],,5bv8[16:3],,
,8bV24[16:3],,,
{16}7-4[8:1],,7pp3[4:1],,
,,,,
,,8-6[32:3],,
1-5[32:3],,2-4[32:3],,
{16},,7-5[8:1],,
5-1[8:1],,2>4[8:1],,
4p8>2[4:1],,,,
,,,,
{16}6-4[8:1],,7-3[8:1],,
6-2[8:1],,7-1[8:1],,
6>3[8:1],,7p2b[16:3],,
,,,,
{16}8V62[4:1],,,,
2-4[8:1],,4-6[8:1],,
6v1[8:1],,2b-5b[16:1],,
,Cf,,,
{16}3>8[8:1]/7-4[8:1],,4<8[8:3]/8pp4[2:1],,
,,,,
,,,,
{24},,,5-2-4[8:11],,5-8-6[24:31],
{16},,,,
,,,,
,,,,
,,,,
{16},,,,
,,,,
,,,,
,,,,
{16}6>4[4:1],,,,
,,,,
2>4[4:1],,,,
,,,,
{16}7<5[4:1],,,,
,,,,
3<5[4:1],,,,
,,,,
{16}4p5[16:11],,,,
,,,,
8-5[16:3],,,,
,,,,
{16}2>4[8:1],,,,
8q4b[16:3],,,,
1<4b[4:1],,,,
,,,,
E
