&title=虚(Utsuro)
&artist=Halv
&first=0.03
&des=nomiko
&lv_5=14.5
&des_5=nomiko
&inote_5=
(188){4},,,,,,,,{2}4h[2:1],
6h[2:1],
{16}7,,,5,,,{8}7/4,{16},6,,,{8}5/3<1[4:1],2,
6h[4:1],,,5b,,,{4}2h,
{8}3x,2,1,8,2x,1,8,7,
{2}6xh[4:1]/3xh[4:1],{8}1xh[4:1]/8xh[4:1],{16},,,,2x,3,
{8}4,,,5h[8:3],,,{4}7,
{2}6,6xh[4:1]/4xh[4:1],
{8}2x,3,4,5,3x,4,5,6,
7b/2b,6,3,5,3V52[4:1],6,3x,6,
5b,3,6,4,6V47[4:1],3,6x,3,
4b,6,3,5,4V25[4:1],6,4x,7,
6b,4,6,4,5V74[4:1],3,5x,2,
3b,5x,3,5,{16}3V52[4:1],7,{8}2,3x/6x,7,
6b,3,6,4,{16}6V47[4:1],2,{8}7,6x/3x,2,
3b,6,{16}2,5,{8}1,{16}3<4V25[4:1],7,{8}2,3x/6x,7,
{4}6h[4:3],{24},,,,,,,,,,,,8x,1,2,3,4,5,
{1}7b,
{4},,,,E3/D3,
E4/B4,{8},E8,{4}E7,
A2/B2,A3/E4,{8},E7,{4}E6,
2x-5[8:1],2x,{8},7x,{4}6x,
3x-5[8:1],3x,{8},8x,{4}7x,
2x-5[8:1],2x,{8},7x,{4}6x,
1b,{32},,,,,,,,,,,,,,,,2x,3,4,5,6,7,8,1,
{4}5bxV73[4:1],{8}3x-8[8:1],4,,5-1[8:1],{4}4,
{8}6,6,{16}7x>2[8:1],8,{8}7,2,3,{4}3<5[8:1],
6<8[8:1],{8}1,1>3[8:1],,4,{4}4<6[8:1],
2-5[8:1],2<7[8:1],{32},,,,,,,,3,2,1,8,{8}7,
{32}4bxV26[4:1],5,{16}6,,,{8}6x-1[8:1],5,,4-8[8:1],{4}5,
{8}3,3,{16}2x<7[8:1],1,{8}2,7,6,{4}6>4[8:1],
3>1[8:1],{8}8,8<6[8:1],,5,{4}5>3[8:1],
7-4[8:1],7>2[8:1],{32},,,,,,,,6,7,8,1,{8}2,
5bx,4,3,{16}6x,5,3xh,4,{8}2,1xV37[4:1],8x,
4bx,5,6,{16}3x,4,6xh,5,{8}7,8x,1b/7b,
4bx,5,6,{16}3x,4,6xh,5,{8}7,8xV62[4:1],1x,
5bx,4,3,{16}6x,5,3xh,4,{8}2,1x,{24}2b/8b,3,4,
{8}5/7,7>2[8:1],,4,{4}4<7[8:1],{8}1,1>4[8:1],
,6,{4}6-2[8:1],{2}2x>5[8:1]*<7[8:1],
{16}6bx,7,8,1,5bx,6,7,8,3bx,4,5,6,2bx,3,4,5,
1bx,1,{8}1,{16}2bx,2,{8}2,{16}3bx,4x,3x,4x,{24}3x,4,5,6,7,8,
{8}1x/5b,6,{16}7/2x>5[8:1],,,1,2,{32},,,,6,7,8,1,,,{8}4b,
5,6,{16}7/2x>5[8:1],,,1,{4}2x/7x-4[8:1]*-3[8:1],7bx,
{8}1x/6,7,{16}8/2x>5[8:1],,,1,2,{32},,,,6,7,8,1,,,{8}4b,
5,6,{16}7/2x>5[8:1],,,1,{4}2x/7x-4[8:1]*-3[8:1],7bx,
{8}8b,3x,{16}2x/7x<4[8:1],,,8,7,{32},,,,3,2,1,8,,,{8}5b,
4,3,{16}2/7x<4[8:1],,,8,{4}7x/2x-5[8:1]*-6[8:1],2bx,
{8}8x/3,2,{16}1/7x<4[8:1],,,8,7,{32},,,,3,2,1,8,,,{8}5b,
4x,{16}3,5,{32}3x,2,{16}1,,6,8,7,8,7,8,7,8,7,
{32}8x,1x,2x,3x,{8}4x,{32},,,,1x,8x,7x,6x,{2}5x,
{32}2x,3x,4x,5x,,,,,,,,,8x,1x,2x,3x,,,,,,,,,,,,,,,,,1x,
8x,7x,6x,{8}5x,{32},,,,8x,1x,2x,3x,{2}4x,
{32}7x,6x,5x,4x,,,,,,,,,1x,8x,7x,6x,,,,,,,,,,,,,,,,,{8}5xv2[8:1],
6,7x,8,8xV25[16:3],1,2x,3,
3xv8[8:1],4,5x,6,6xV42[8:1],7,8x-3[8:1],1x-4[8:1],
8x,1x,5x-8[8:1],6x-1[8:1],5x,6x,2x,3x,
5x,{16}4x,4,{8}3x,{16}4x,4,5x,4,5,3,5,2,5,1,
{2}5bh[2:1],8h[2:1],
{16}6h[1:1],,,5,,,{8}4,{16},3,,,{8}2,1,
8h[8:3],,,4h[8:3],,,{4}2h[4:1],
{8}7x,6,5,4,6x,5,4,3,
{2}2h[2:1],{8}8b,{16},,,,3x,4,
{8}5,,,1h[8:3],,,{4}4,
{2}3h[4:3],6h[4:1],
{8}5b/4b,,,,,2,3<1[2:1],6,
{2}8xh,E6/B5,
{8}2x,7x,{4}2x-5[8:1],E7/B7,{8}6x>8[2:1],1x,
{2}3xh,E4/B4,
{8}7x,3x,{4}7x-4[8:1],E3/B2,{8}1,2/6,
3,6-4[8:1],3>8[8:1],6,3x,5xh[4:1],7b,8,
6,3-5[8:1],6<1[8:1],3,6x,4xh[4:1],2b,1,
6xh[4:1],3>8[8:1],4x,3h,5xh,7b,8,5xh[8:1],
{4}1b,{32},,,,,,,,,,,,,,,,2x,3,4,5,6,7,8,1,
{8}5bxV73[4:1],4,{16}3x-8[8:1],4,{8}5,,5x>3[8:1],4,5x-2[8:1],
6,5,{16}7x>2[8:1],6,{8}5,2,3,3<5[8:1],{16}8,7,
{4}6x<8[8:1],{16}3,2,{8}1x>3[8:1],{16},,6,5,{4}4x<6[8:1],
2x-5[8:1],2<7[8:1],{32},,,,,,,,3x,2,1,8,{8}7,
{16}4bxV26[4:1],5,{8}6,6x-1[8:1],4,,4x<6[8:1],5,4x-7[8:1],
3,4,{16}2x<7[8:1],3,{8}4,7,6,6>4[8:1],{16}1,2,
{4}3x>1[8:1],{16}6,7,{8}8x<6[8:1],{16},,3,4,{4}5x>3[8:1],
7x-3[8:1],7>2[8:1]*<4[8:1],{32},,,,,,,,3x/5xh[8:1],2,1,8,{8}7,
4,{16}8,1,{8}2/6,8,{16}4,3,{8}2/6,8x/4x,{16}1,2,
3,4,{8}5,{24}2b,3,4,5,6,7,8,5,4,3,2,1,{4}8x/4bx<7[8:1],
{16}1b,{48},,,,,,3x,,4,,5,,{16}6,{24}7x,8,1,{8}2,8x-5[8:1]/4x-1[8:1],6x/2x,8b/4b,
{24},,,,,,8x,1,2,3,,,{8}4bxh,{24}7x,6,5,4,3,2,1,,,{8}5,
{16}1,8,{8}7/3,1,{16}5,6,{8}7/3,5,{16}1x,8,
7/3b,6,5,4,7b/3p7[4:1],2,1x,8,7/3b,6,5,4,{4}3x,
4b/8b>3[8:1],{8}8/5,6b<1[8:1],,6/3,{4}2b>5[8:1],
{8}8/2,7b>2[8:1],,7x,{24}4x,5,6,7,8,1,6xh,5x,4x,3x,2x,1x,
{4}4b/8x-4[8:1],{8}8x,7>2[8:1],,7,{4}5,
{16}3<6[8:1],4,{8}3,{16}2x,1,{8}8,5h[4:1]/7-3[8:1],8,{4}7x,
4x/8x,{8}6x/2x,6h/2h,,4/8,{4}8xV62[4:1]/4xV26[4:1],
{8},,,5xV71[8:1],{24},,,,,,3x,4,5,6,7,8,
{4}5b/1x-5[8:1],{8}1x,2<7[8:1],,2,{4}4,
{16}6>3[8:1],5,{8}6,{16}7x,8,{8}1,4h[4:1]/2-6[8:1],1,{4}2x,
{24}5h[4:1]/3h[4:1],,,,,,,2,1,5h[4:1]/8h[4:1],,,,,,,6x/1x,7x/2x,{4}3x/8x,
1bx-5[8:1]/2bx-4[8:1],2x/1x,{16}3xh,6,4,6,5,6,7,6,
{4}8b,{16}1-5[8:1],2,{8}3,1x/4-8[8:1],3,4x/6v1[8:1],7,
{4}6x,{16}8>3[8:1],7,{8}6,8x/5-1[8:1],6,{16}5x/2x-6[8:1],3x,4x,5x>2[8:1],
2x,,,5x,{48},,,,,,{24}6bx,7x,8x,{8}1x,7>2[8:1],{4}8,
{24},,,,,,4x,5,6,7,{48},,,,{16}1,8,1,2,1-5[8:1],3,1,4,
{4}1x<6[8:1],3/1b,{16}5,4,6,3,8x-4[8:1],1,2,7,
{4}8x>3[8:1],8b/6,{16}5,4,7,2,8,1,6,3,
4,5,4,5,3,6,3,6,2,7,2,7,1,8,1,8,
{32}1b,2,3,4,{16}5,6xh[16:1],{32}2b,1,8,7,{8}6/3xh[16:1],{16}4x,4,8x,8,5x,5,1x,1,
{32}6b/2b,3h/7h,4h/8h,5h/1h,{8}6bh/2bh,,,{2}B2/E3,
{16}E7,,,E6,,,{8}E5,{16},E4,,,{4}E3,
{8}1xh[8:3],,,5xh[8:3],,,{4}3xh[4:1],
{8}E7,E6,E5,E4,E6,E5,E4,E3,
{2}2xh[4:1]/7xh[4:1],8xh[4:1]/1xh[2:1],
{8}6xh[8:3],,,3xh[8:3],,,{4}5xh[4:1],
{2}4xh[4:1],6xh[4:1]/3xh[4:1],
{1}5xh/4xh,
{8}3,5,4,6,3h,4h,5h,6h[8:1],
,4,5,3,6h,5h,4h,3h[8:1],
,5,4,6,3h,4h,5h,6h[8:1],
,4,5,3,6h,5h,4h,3h,
5,4,6,5,3,4,{4}3h[8:1]/6h[8:1],
{8}4,5,3,4,6,5,{4}6h[8:1]/3h[8:1],
{8}5,4,6,5,3,4,{4}3h[8:1]/6h[8:1],
{8}5,4,5,4,B3,B4,B5,B6,
E
