&title=エゴ (Ego)
&wholebpm=160
&artist=sasakure.UK
&first=0
&des=Kiri.su
&lv_5=14
&des_5=Kiri.su
&inote_5=
(160)
{1},
8h[1:1]/Ch[6:1],Ch[6:1],7h[1:1]/Ch[6:1],
{8}
Ch[6:1],,,,8,7,6,5,
{1}
4h[2:1]/Ch[6:1],3h[2:1]/Ch[6:1],6h[2:1]/Ch[6:1],
{24}Ch[6:1]/2,,,,1h[24:17],,,,,,,,6,,,,5h[24:5],,,,,2x/6x,3x/7x,4x/8x,
1x/5x,,,2,,,3,,,4,,,4x,5,4,6h[24:2],,,,,,3/5,,,
2/6,,,7,,,7x,8,7,1,,,3,,,4h[24:5],,,1,,,8,3x/7x,2x/6x,
1x/5x,,,8,,,7,,,6,,,6x,5,6,4h[24:2],,,,,,3/7,,,
2/8,,,1,,,1x,8,1,7,,,2,,,1h[24:5],,,6,,,5,2x/6x,3x/7x,
4x/8x,,,3,,,2,,,1,,,1x,2,1,3h[24:2],,,,,,4/6,,,
3/7,,,8,,,8x,7,8,6,,,2,,,3h[24:5],,,6,,,7,2x/6x,1x/5x,
4x/8x,,,1,,,2,,,3,,,3x,4,3,5h[24:2],,,,,,2/6,,,
1/7,,,8,,,8x,1,8,2,,,1-5[16:1]/8-4[16:1],,,7,,,1b/8b,,,,,,
{6}
1h[12:1]/2h[12:1],8h[12:1]/2h[12:1],1h[12:1]/7h[12:1],4h[12:1]/6h[12:1],3h[12:1]/5h[12:1],E1/B8/B7/E7,
7h[12:1]/8h[12:1],1h[12:1]/7h[12:1],2h[12:1]/8h[12:1],3h[12:1]/5h[12:1],4h[12:1]/6h[12:1],E1/B1/B2/E3,
7h[12:1]/8h[12:1],6h[12:1]/7h[12:1],4h[12:1]/5h[12:1],1h[12:1]/2h[12:1],2h[12:1]/3h[12:1],E6/B6/B7/E8,
{24}
5h[12:1]/1b,2,3h,,6h[12:1]/1b,2,3h,,5h[12:1]/1b,2,3h,,4h[12:1]/8b,1,2h,,3h[12:1]/1b,8,7h,,,,,,
{6}
2hx[12:1]/6hx[12:1],2h[12:1]/7h[12:1],1h[12:1]/3h[12:1],4h[12:1]/6h[12:1],7h[12:1]/8h[12:1],E3/B3/B4/E5,
3h[12:1]/7h[12:1],2h[12:1]/7h[12:1],6h[12:1]/8h[12:1],4h[12:1]/5h[12:1],1h[12:1]/2h[12:1],E5/B5/B6/E7,
3h[12:1]/5h[12:1],2h[12:1]/6h[12:1],1h[12:1]/7h[12:1],1h[12:1]/3h[12:1],4h[12:1]/8h[12:1],C,
{24}
4h[12:1]/8b,1,2h,,6h[12:1]/2b,1,8h,,3h[12:1]/7b,8,1h,,5h[12:1]/1b,8,7h,,,,8-5[16:1]/1-4[16:1],,,,,,
(168)
{8}
1b/8b`E1/E2/Cf/E5/E8,,3/7-3[8:1],8,7x/3,,2-6[8:1]/6,1,
2^5[8:1]/6,5-1[16:1],2,,2x-8[8:1]/7x-3[8:1],,2-5[16:1]/7-4[16:1],,
2b/7b,,2-6[8:1]/6,1,2x/6,,3p7[16:1]/7p3[16:1],8,
{16}
3/7,,8x,4x,1,5,2,6,3x-8[12:1]/7x-4[12:1],,4/8,,3-6[16:1]/7-2[16:1],,,,
{8}
3b/7b,,2-6[8:1]/6,1,2x/6,,3/7-3[8:1],8,
3/7^4[8:1],4-8[16:1],7,,7x-1[16:1]/2x-6[16:1],,2-4[16:1]/7-5[16:1],,
2b-7[8:1]/7b,,2/8-5[8:1],,8/6-3[8:1],,6/4-1[8:1],,
{24}
4/5,,,8,,,2x-6[8:1],1,2,8x-4[8:1],,,2x-4[8:1],,,8x-6[8:1],,,2,,,8,,,
(160)
{4}
6x/3xh[8:1],7/A3,6/3h[8:1],7/A3,
6/3h[8:1],7/A3,6/3h[8:1],7/C,
6/2h[8:1],5/A2,6/2h[8:1],5/A2,
6/2h[8:1],5/A2,6/2h[8:1],5/C,
6-3[8:1],6/1^6[8:1],1/4-8[8:1],4/5,
1-6[8:1],1/7^2[8:1],7/5-1[8:1],4/5,
6-2[8:1],6/3-7[8:1],8-5[8:1],1/8,
1v3[8:1]/5v7[8:1],1/5,4v2[8:1]/8v6[8:1],4/8,
3/6pp1[2:1],3,3,3,
2/8qq4[2:1],2,2,2,
3/7-2[8:1],4/7,3/1-6[8:1],2/1,
4<2-6[8:5],3,3-7[8:1],3,
7^4[8:1]/8-5^4[8:1],8/7,1-4^5[8:1]/2^5[8:1],2<6[4:1]/1,
6>2[4:1]/2,2<6[4:1],6-2[8:1],8,
{32}
4/6,3/5,2h[32:26]/4h[32:26],,,,,,,,,,,,,,,,,,,,,,,,,,,,,,
2/5,3/6,4/7,5h[32:17]/8h[32:17],,,,,,,,,,,,,,,,,,,,,
8pp3[8:15]/5-1[16:1],,,,,,,,
{24}
8xh[12:1]/5b`A5,,,,7xh[12:1],,,,6xh[12:1],,,,7xh[12:1],,,,6xh[12:1],,,,,,,,
1xh[12:1],,,,2xh[12:1],,,,3xh[12:1],,,,2xh[12:1],,,,3xh[12:1],,7xpp2[8:15],,,,,,
7xh[12:1],,,,6xh[12:1],,,,5xh[12:1],,,,6xh[12:1],,,,5xh[12:1],,,,,,,,
2xh[12:1],,,,3xh[12:1],,,,4xh[12:1],,,,3xh[12:1],,,,4xh[12:1],,3xpp6[8:7],,,,,,
2xh[12:1],,,,1xh[12:1],,,,8xh[12:1],,,,7xh[12:1],,,,6xh[12:1],,5xqq8[8:7],,,,,,
5xh[12:1],,,,4xh[12:1],,,,3xh[12:1],,,,5x-8[16:1],,,,,,5x,,,,,,
{16}
2,4,2,4,3,5,3,5,2,6,2,7,2>2[4:1],8,2,1,
{32}
A2,A3,A4,A5,A6,A7,A8,A1,B2,B3,B4,B5,B6,B7,B8,B1,A2/B2/Ch[4:1]/B6/A6,,,,,,,,8-4[16:1],,,,,,,,
(168)
{8}
8b/2-5[8:1]`A8f,1,2/7-5[8:1],8,7/2-4[8:1],1-5[8:1],2-7[8:1],1-4[8:1],
2,1,8^3[16:1],8,8^5[16:1]/6,7,8-3[8:1]/2,1,
8x-5[8:1],2x-5[8:1],8,2,7-4[8:1],8>5q8[8:3],7,8,
{4}
Cf,,3-8[16:1]/6-1[16:1],3/6,
{8}
8-2[8:1],7-5[8:1],8-4[8:1],7>5[4:1],8,7,,3x,
1-7[8:1],2-4[8:1],1-5[8:1],2<4[4:1],1,2,,,
1,8/2,7-3[8:1],3-8[8:1],7,,7x/2x,3-5-8[8:1]/6-4-1[8:1],
,3>5[16:3]/6<4[16:3],,,,,1h[8:1]/8h[8:1],,
{16}
1xb/8xb,,7x,8,7-4[16:1],,8x,1,7,,2x,1,2-5[16:1],,1x,8,
2,,6x,5,7^8-4^2-6^7[2:1],5,6,5,{8}7,,A3,,
{16}
5bx,,5x,6,4-1[16:1],,4x,3,4,,1x,2,8-4[16:1]b,,1,,
{8}8bx^2[16:1]b,C/B1/B2,8bx^6[16:1]b,C/B5/B6,8bx-5[16:1]/8x-3[16:1],,8xb`B1/B7`B2/B6,,
{16}
2/6,,4,3,5,,4/6,,3/7,,7,1,8,,7/1,,
{8}
6/2,6,7-4[16:1]/8-4[16:1],1,7x/8x,3x,1-5[16:1]/2-5[16:1],8,
1x/2x,,7,6,5h[8:5],,2,3,
{4}4h[8:1],{32}4/5,,,,4x/5x,3x/6x,2x/7x,1xb/8xb,{8},2/7,1x-4[16:1]b/8x-5[16:1],,
1b/8b`A1/E1/A8/Cf/B4/B5/E5,,2-5[8:1]/1,8,2/7,8,7-4[8:1]/2,4-7[8:1],
7-2[8:1],2-5-8[4:1],,,,,4x^1[8:1]/1x^6[8:1],,
4b/1b,,7-4[8:1]/8,1,7/2,3,2q6[8:1]/6q2[8:1],1,
{16}
2/6,,1x,5,8,4,7,3,8x-6-3[12:1]/4x-2-7[12:1],,1/5,,8>4[16:1]/4<8[16:1],,,,
{8}
4b/8b,,7p3[8:1]/1,2,7/3,,2p6[8:1]/8,7,
6/2^5[8:1],5^8[8:1],2,,4,5,6^3[4:1]/3,,
{4}6/3^8[4:1],8-6-4[4:1],4-2-8[4:1],8-5-3[4:1],
3-6-8[4:1],,4b/A8f,,
{32},
{4}2/8h[4:1],2>5-8[4:1],{32}2x,E2,B1,B8,E8,,,,{4},
8/1h[4:1],8-6>3[4:1],{32}8x,E1,B1,B2,E3,,,,{4},
3/4h[4:1],3-1-7-5[4:1],{32}3x,E4,B4,B5,B6,,,,{4},
3h[8:1]/5h[8:1],3^8-4[8:3]/5^8-4[8:3],{32}3/5,D3/D6,A2/A6,D2/D7,A7/A1,D1/D8,A8f,,{4},
{8}
2^4[8:1],1,2-6[8:1],7-4[8:1],2x,7,2,,
7^5[8:1],8,7-3[8:1],2-5[8:1],7x,2,7,,
,8,7/1,7/1,6x/2x,6/2,6/3,7-1-4[4:1]/2-8-5[4:1],
,7<1[16:3]/2>8[16:3],,,,,1xh[8:1]/8xh[8:1],,
{16}
1b/8b,,1x,7,1-6[8:1],,8x,2,1,,8,2,8-3[8:1],,1,7,
8,,1,2,8,3,7,4,7,8,6,1,5^6-8[8:1],2,4,3,
5b,,1x,3,1v4[8:1],,1x,7,1,,2x,3,1-5b[8:1]b,,8,7,
{8}1bx^4[8:1]b,C/B7/B8,1bx^6[8:1]b,C/B3/B4,1bxw5[8:1]b,,1bx`B2/B8`B3/B7,,
{16}
4/7,,5,4,6,,5/7,,4/8,,1,8,2,,7/3,,
{8}2-6[8:1],8-4[8:1],2,8,7-3[8:1],5-1[8:1],7q2[4:1]*p4[4:1],5,
7x,,,,3h[8:5],,,7,
7h[8:1],,{32}A3/A7,,,,3/7,2x/6x,1x/5x,4x/8x,{8},1/5,{32}2x,3,4,5,6,7,8,1,
{16}2b/6,,7x,8,7^8-5[8:1],8,5,3,7,,2,1,2-4-1[8:1],1,4,6,
2,,7,8,5,4,1,2,{8}3qq1[8:1],5,7xqq5[8:1]/3,,
{16}7/1b,,3,4,1,8,5,6,4,5,3,4,3pp4[4:1]*^1-4[4:1],4,1,7,
{4}3`Cf,,5^8[8:1]*^2[8:1],5,
{8}2-4[8:1],1-5[8:1],2-6[8:1],1-7[8:1],A2f,A1f,2,,
7-5[8:1],8-4[8:1],7-3[8:1],8-2[8:1],A7f,A8f,7,,
{8},7/8,5/6,3/4,1/8,6/7,4/5,2/3,
{16}1/8-4[8:1],,7,7,8x/1-5[8:1],,2,2,1x/8,,6,,{32}8x/2,1,2,3,4,5,6,7,
{16}8xb/1xb,,1,8,1,2,3,4,5/6,7,8,1,2/3,4,5,6,
7/4,5,6,7,8/5,6,7,8,1-6[8:1]b/5-2[8:1],2/6,3/7,4/8,1-4[8:1]/5-8[8:1]b,,,,
{8}4b/8b,,2/4,5,6/8,1-4[8:1]b*>4[8:1],6/8,1b-6[8:1]*<6[8:1]b/5x,
C/B3f/B4,1b-5[8:1]*-5[8:1]b/5x,C/B8/B7f,1bv3[8:1]*v7[8:1]b/5x,C/B1f,1w5[8:1]b,,{32}1bx,Cf,B4/B5/B6,,
{8},1>1qq7qq5qq3qq1[8:11]b*<1pp3pp5pp7pp1[8:11],,1xb,,,,,
,,,,,,,2,
1/2,3,4/5,6,{16}7/8,8,1,1,3,3,5,5,
{32}2/5x,3,4,5,6,7,8,1,2/6x,3,4/7x,5,6,7,8,1,2/6,5,4,3,2,1,8,7,6-1[16:1]/2x-5[16:1],5,4,3,2,1,8,7,
{64}6xb>6qq2[8:13]b`2xb<2qq6[8:13],A2/A6,E3/E7,B3/B7,Cf,B4/B8,E1/E5,,,,,,,,,,{4},,,
{1},C,,
B6/B7/E7,
{8},B1/B2,B6/B7,B4/E4,,E8/B7,,5,
Ch[1:1]/4,4,3,,2,1,,8,
E1,E2/E8,E3/E7,E4/E5/E6,,1v3[4:1]*s5[4:1],1,1x/8x,
