&title=要抱抱
&artist=王蓉
&first=0
&des=墨滢
&lv_5=13
&inote_5=(124.2){1},,,
{8},E4,,E5,,E6,,E8,,D6,,D5,,D4,,E2,
{8},E1,,E8,,E7,,A8,,B8,B1,A2,E3,E4,B4,D5,
{4}3h[4:1]/5,{32}E3,B3,,,{8},{4}6h[4:1]/4,E7f/B7/B6,
{4}2h[4:1]/4,{32}E3,B3,,,{8},{4}6h[4:1]/5,{32}E8,B7,,,{8},
{4}3h[4:1]/4,{32}B1,E2,,,{8},{4}7h[4:1]/5,{32}B8,B7,,,{8},
{4}2h[4:1]/6,4h[4:1],5-8b[8:1],,
{8}3/5-3[12:1],,56,,5^7[12:1]/7,4,53,,
{8}24,5,46,3,4-8[8:1]/2,5,7,,
{8}2q7[4:1],,7p2[4:1],,8,8,8,,
{8}35,2,46,7,3/5-1[8:1],4,2,,
{8}6/4-6[12:1],,43,,4^2[12:1]/2,5,64,,
{8}75,4,53,6,5-1[8:1]/7,4,3,,
{8}3/4-6[12:1],,46,,4-7[8:1]/7,3,24,,
{8}25,3,47,6,4-1b[8:1]/5-8[8:1],36,45,,
{8}24,3,57,6h[8:3],4-1[8:1],5,4,,
{8}75,6,42,3h[8:3],5-8[8:1],4,5,,
{8}24,3,57,6h[8:3],4-1[8:1],5,4,,
{32}B2/B7,B3/B6,B4/B5,,{8},3h[8:4],{32}B5,B6,B7,,{8},{32}B5,B6,B7,E8,{4}A8f,
{8}24,6,57,3h[8:3],8-5[8:1],1,8,,
{8}75,3,42,6h[8:3],1-4[8:1],8,1,,
{8}24,6,57,3h[8:3],8-5[8:1],1,8,3x-1b[12:1],
{8},3/5-7b[12:1],,5/4-8b[8:1],,47,5b,,
{4}4-1[8:1]/3-1[8:1],4<8[6:1]/3q8[6:1],34,{8}2,3,
{8}4-7[8:1]/6,7,8-5[8:1],6,5,,4,3,
{8}28,7,56,4/5pp4[4:1],,4qq5[4:1],3,2,
{4}1hx[4:1],7h[4:1],5h[4:1],{8}8,7,
{4}5-8[8:1]/6-8[8:1],5>1[6:1]/6p1[6:1],65,{8}7,6,
{8}5-2[8:1]/3,2,1-4[8:1],3,4,,5,6,
{8}47,3,24,1/5h[4:1],,2,35,4,
{4}7/5^2[8:1],8^5[8:1],1,{8}1,2,
{4}4-1[8:1]/3-1[8:1],4<8[6:1]/3q8[6:1],34,{8}2,3,
{8}4-7[8:1]/6,7,8-5[8:1],6,5,,4,3,
{8}28,7,56,4/5-7^8v2^3-5[2:1],,4,3,2,
{4}1hx[4:1],7h[4:1],5h[4:1],{8}8,7,
{4}5-8[8:1]/6-8[8:1],5>1[6:1]/6p1[6:1],65,{8}7,6,
{8}5/2-4[8:1],1,5-1b[8:1],6,E7f,,,,
{8}5/2-5[8:1],1,4-8b[8:1],6,E7f,,,,
{4}5^8[8:1],5^2[8:1],5-1[8:1],5,
{4}8v5b[8:1]*v2b[8:1],8v3[8:1]*v6[8:1],8v5b[8:1]*v2b[8:1],8,
{4}1v4b[8:1]*v7b[8:1],1v6[8:1]*v3[8:1],1v4b[8:1]*v7b[8:1],1,
{8}E7/D7/A6,E3/D3/A3,5xh[8:1],A7/D8/E8,4xh[8:1],A6/D6/E6,E3/D3/A3,E7/D7/A6,
{8}A2/D2/E2,A3/D4/E4,5xh[8:1],E7/D7/A6,4xh[8:1],E3/D3/A3,E7/D7/A6,,
{4}8v5b[8:1]*v2b[8:1],8v3[8:1]*v6[8:1],8v5b[8:1]*v2b[8:1],8,
{4}1v4b[8:1]*v7b[8:1],1v6[8:1]*v3[8:1],1v4b[8:1]*v7b[8:1],1,
{8}E7/D7/A6,E3/D3/A3,5h[8:1],A7/D8/E8,4h[8:1],A6/D6/E6,E3/D3/A3,E7/D7/A6,
{8}A2/D2/E2,A3/D4/E4,5h[8:1],E7/D7/A6,4h[8:1],E3/D3/A3,E7/D7/A6,,
{4}1-4[8:1]/2-4[8:1],1<5[6:1]/2p5[6:1],21,{8}2,3,
{8}4-7[8:1]/6,7,8-5[8:1],6,5,,4,6,
{8}71,2,43,5/4qq5[4:1],,5pp4[4:1],6,7,
{4}8hx[4:1],2h[4:1],4h[4:1],{8}5,6,
{4}8-5[8:1]/7-5[8:1],8>4[6:1]/7q4[6:1],78,{8}7,6,
{8}5/2-4[8:1],1,5s1b[16:3],6,,,,,
{8}46,3,26,3-7[8:1]/7,,4qq5[8:5],5,6pp5b[8:3],
{4},,,1bh[4:14],
{4},{32}B7,E7,,,{8},
{4},{32}B7,E7,,,{8},
{4},{32}B7,E7,,,{8},
{4},{32}B7,E7,,,{8},
{4},{32}B7,E7,,,{8},
{8},D6f,E5f,D4f,,,{4}5p2[4:1]*pp1[4:1],,,
{1}Ch[2:1],
{16}37,,,6,5,,46,,4-1b[8:1],,3h[2:1],,,,,,
{8},4,5,46,7/E4f,8,2xh,,
{16}37,,,6,5,,46,,4-1b[8:1],,3h[2:1],,,,,,
{16},,4,3,4,,35,,4^6[16:1],,3,,{64}A4,D5,A5,D6,A6,,,,{16},,
{16}62,,,3,4,,53,,5-8b[8:1],,6h[2:1],,,,,,
{8},5,4,53,2,15,7xh,,
{16}62,,,3,4,,53,,5-8b[8:1],,6h[8:9],,,,,,
{8},5,4,3,2,1,8,7,
{4}5b^4-6-3-7-2-8^1b[4:2],,,{8},,
{4}4b-6[8:1]/8b^5[8:1],8^3[8:1]/4-2[8:1],48,
{8}8,7,4-8[8:1]/6,2,4/1-6[8:1],2,1/4q8[8:1],,24,2,
{8}3^8q4[4:1],4,6,6h[4:1],,5,45,34,
{4}2^3-5-7[4:1]/5,7^4-2[4:1],2,{8}7,6,
{4}5-3[8:1]/1^4[8:1],1^6[8:1]/5-7[8:1],51,
{8}1,2,5-1[8:1]/3,7,5/8-3[8:1],7,8/5p1[8:1],,56,7,
{8}7-4[8:1],3pp5[8:1],2,2h[4:1],,4,2/5pp4[4:1],3/6,4qq5b[4:1],,,,,,
{8}5-8[8:1]/7-1[8:1],6,
{4}5b-3[8:1]/7b-4[8:1],5-2[8:1]/7-2[8:1],57,
{8}1p5[8:1]/7,3,4-8[8:1]/1,3,4/1-6[8:1],2,1/4q8[8:1],,24,2,
{8}3^8q4[4:1],4,6,6h[4:1],,5,7^6-4-2[4:1]/4,3,
{4}2^5-7[4:1],7,2,
{8}4-1[8:1]/2-8[8:1],3,
{4}4-6[8:1]/2-5[8:1],4-7[8:1]/2-7[8:1],42,
{8}5-2[8:1]/3,7,8q4[8:1]/5,7,8/5-8b[8:1],6h[8:3],A5f,,,,
{8}8q4[8:1]/7,1,8/5-1b[8:1],6h[8:3],A5f,,,,
{4}2b-4b[8:1]/8b-4b[8:1],2bx-6b[8:1]/8bx-6b[8:1],2bxv5b[8:1]/8bxv5b[8:1],8bxw4b[8:1]/2bx,{16}8b,Cf,
