&title=Welcome, Queen of Fiction
&artist=打打だいず (D-D-Dice)
&first=0.22
&des=Neopharmazz
&lv_5=14+
&inote_5=(262){12}
,,,,,,,,,,
4x,5,4,5,4,5,4,5,4,5,4,5,
(261)4,5,4,5,4,5,4,5,4,5,4,5,
(260)3,6,3,6,3,6,2,7,2,7,2,7,
(272){4}E1,(262)E7,(256)E5,(266)E3,
(262){8}2b/6b,,,,1/E3`B3,,8,,72,,,8,E3`B3,,6,,
2,,{12}5,4,6,{8}E3`B3,,8,,72,,,8,E3`B3,,6,,
73,,,,8/E7`B6,,1,,27,,,1,E7`B6,,2h[8:3],,
3h[8:1],,1h[8:1]/4h[8:1],,8h[8:1]/5h[8:1],,7h[8:1]/6h[8:1],,{12}D2,D4,E2,E4,,,D8,D6,E8,E6,,,
{8}5b-1[16:1]/6b,,7,,4-8[16:1]/3,3,2,,5-2[16:1]/6,,8,,4-7[16:1]/3,3,1,,
1-5[16:1]/2,,3,,8-4[16:1]/7,7,6,,1-6[16:1]/2,,4,,8-3[16:1]/7,7,5,,
8bp4[4:1]/1b,,4p8[4:1],,8V64[4:1],,4V28[4:1],,8<4[4:1],,4>8[4:1],,8,,4,,
{12}8,1,8,1,8,1,7,2,7,2,7,2,{4}E5,E7,E1,E3,
{8}2b-5[16:1]/8b-5[16:1],,28,,,34,25,,,78,61,,{16}2-6[16:1],3,2,3,{8}2,,
7-4[16:1]/1-4[16:1],,71,,,65,74,,,21,38,,{16}7-3[16:1],6,7,6,{8}7,,
1-3[16:1],1,7-5[16:1],7,2-4[16:1],2,8-6[16:1],8,1,1,8,8,{16}2,3,4,5,6,7,8,1,
{8}2b-4v2[4:3]/7b-5v7[4:3],,,,,,,,,,E6/E5/E4,,E7/C/E3,,E8/E1/E2,,
7-5[16:1]/1h[2:1],,7,,7-5[16:1],,71,,8-6[16:1]/2,,83,,8-6[16:1]/4,,81,,
1-7[16:1]/2-4[16:1],,12,,1-3[16:1]/8-6[16:1],,18,,1-7[16:1]/2-4[16:1],,1-5[16:1]/2-6[16:1],,1-7[16:1]/2-4[16:1],,12,,
2-4[16:1]/8h[2:1],,2,,2-4[16:1],,28,,1-3[16:1]/7,,16,,1-3[16:1]/7,,18,,
78,78,,54,,12,12,,,,B7/E7/B6/C/B2/B3/E3,,,,45,,
7,1,8,2,6,8,7,1,5,7,6,8,7,1,1,8,
2,8,1,7,3,1,2,8,4,2,3,1,2,8,8,1,
7,8,6,5,7,1,6,4,7,2,6,3,5,4,4,8,
2,1,3,4,2,8,3,5,2,7,3,6,4,5,5,1,
4w8[2:3],,,,,,,,,,,,,,,,
,,1b/2b`E1/E3`B8/B3`B7/B4`E7/E5,,,,8b/7b`E1/E7`B1/B6`B2/B5`E3/E5,,1b/8b,,5b/4b,5b^8[8:1]/4b^1[8:1],,5b/4b,,,
6,5,7,4,8,3-7[16:1],1,3/2-6[16:1],,2/1-5[16:1],,1/8-6[16:1],,82,
3,4,2,5,1,6-2[16:1],8,6/7-3[16:1],,7/8-4[16:1],,8/1-3[16:1],,17,
5,4,7,8,6,2-6[16:1],1,2/3-7[16:1],,3/4-8[16:1],,4/5-7[16:1],,53,
4,5,2,1,3,7-3[16:1],8,7/6-2[16:1],,6/5-1[16:1],,5/4-2[16:1],,46,
7,7,78,7,71,,3,3,34,3,35,,
67,6,68,6,64,,23,2,24,2,28,,
78,7,81,8,12,,34,3,45,4,56,,
81,8,72,2,6-2[16:1]/3,,6/3-7[16:1],,3/5-1[16:1],,5/4-8[16:1],,
4/5,5,5,5,6,6,7,7,8,8,1,1,
2,2,3,3,4,4,5,5,6,6,7,7,
(252){16}8,1,2,3,4,5,6,7,8,1,2,3,(242)41,8,7,6,5,4,3,2,1,8,7,6,
(211)57,8,1,2,3,4,5,6,7,8,1,2,(182){4}3h[4:1],4h[4:1],(212)5h[4:1],
(232)6b<2[4:3],4,4,2<6[4:3],4,4,
6^1[4:3],4,3,1q5[4:3],3,4,
5q1[4:3],3,3,1<5[4:3],3,3,
5-1-7[1:1],4,4,4h[2:1],,,
3>7[4:3],5,5,7>3[4:3],5,5,
3^8[4:3],5,6,8p4[4:3],6,5,
4p8[4:3],6,6,8>4[4:3],6,6,
4<4[1:1],,,5^8[4:1],,,
(260){8}7b/3b,,,,8/E7`B6,,1,,27,,,1,E7`B6,,3,,
7,,{12}4,5,3,{8}E7`B6,,1,,27,,,1,E7`B6,,3,,
(270)26,,,,1/E3`B3,,8,,72,,,8,E3`B3,,7h[4:1],,
6,,85,,14,,23,,D8/D6/E8/E6,,,,D2/D4/E2/E4,,,,
(280)3b/4b-7[16:1],,8,,5-2[16:1]/6,,1,,3/4-8[16:1],,7,,6/5-1[16:1],,2,,
7x/8x-3[16:1],,4,,1-6[16:1]/2,,5,,7/8-4[16:1],,3,,2/1-5[16:1],,6,,
(290)1x,8,1,8,1,8,1,8,2x,7,2,7,2,7,2,7,
(300)3x,1,3,1,2x,8,2,8,1x,7,1,7,8x,6,8,6,
5x,7,4x,6,3x,5,2x,4,{16}1,8,7,6,5,4,3,2,1,8,7,6,5,4,3,2,
{6}18,18,18,18,,,54,54,54,54,,,
{8}76,76,,81,81,,23,2z6b[8:5]/3,,,E7,,E1,,E3,,
1-6[16:1],,12,,2,1,1,8,2-5[16:1],,21,,1w5[16:1],,1,,
8-3[16:1],,87,,7,8,8,1,7-4[16:1],,78,,8w4[16:1],,8,,
1-7[16:1]*-4[16:1],,1,,6,3,5,4,8-2[16:1]*-5[16:1],,8,,4w8[16:1],,4,,
6b/2b,,,8b/4b,,,1bpp4[4:3]/5bpp8[4:3],,,,,,,,,,
75,,24,,64,64,,3/5h[8:7],{16},,A4,B5,E7,,E4,C,E8,,E3,B1,A8,,,,
{8}24,,75,,35,35,,6/4h[8:7],{16},,A5,B4,E3,,E6,C,E2,,E7,B8,A1,,,,
{8}35,,71,,64,64,,8/2h[8:3],,,4h[4:1],,5h[4:1],,7,,
(420),,1b/5,,2b/3,,3b/8,,4b/6,,5b/2,,6b/8,,(300)7b<3[2:1]/3>7[2:1],,,,,,,,
5-1[4:6],,,,,,,,,,,,,,C,,
7-3[16:1]/3-8[16:1],,73,,5,1,6,4,8-5[16:1]*-3[16:1],,8,,7-4[16:1]/1-4[16:1],,71,,
2-6[16:1]/6-1[16:1],,26,,4,8,3,5,1-4[16:1]*-6[16:1],,1,,2-5[16:1]/8-5[16:1],,28,,
,,{32}7b/8b,61,52,43,,,,,,,,,1b/2b,38,47,56,,,,,,,,8b/1b,27,36,45,,,,,,{8},,{12}2,3,4,5,6,7,
{8}86,,82,,71,82,,17,,13,,71,82,,54,,
42,,46,,35,46,,53,,57,,35,46,,18,,
74,,52,,83,16,,7h[8:3]/4,,,5h[4:1],,4h[4:1],,2,,
(280),,8z4s8[4:15]*z4s8[4:15],,1,,7,,(260)2,,6,,3,,5,,
(240){6}3,2,1,8,7,6],(190){8}5,,(180),,(162),,(142),,
(255)4b/3b,,,,4/E7`B6,,1,,32,,,1,E7`B6,,1,,
(265)3,,{12}7,8,6,{8}E7`B6,,1,,23,,,4,E7`B6,,7,,
(275)56,,,,5/E3`B3,,8,,67,,,8,E3`B3,,8h[8:3],,
(285)1h[8:1],,7h[8:1]/2h[8:1],,6h[8:1]/3h[8:1],,5h[8:1]/4h[8:1],,{12}E8,E2,E6,E4,,,D8,D2,D6,D4,,,
(295){8}7b-5[16:1]/8b,,2,,8-2[16:1]/7,8,5,,7-5[16:1]/8,,3,3-8[8:1],,7,7,,
2-4[16:1]/1,,7,,1-7[16:1]/2,1,4,,2-4[16:1]/1,,6,6-1[8:1],2,6,2,,
(305)2,7,4,7,6,7,8,7,2,7,8,7,6,7,4,7,
2,7,2,5,2,3,2,1,2,7,2,1,2,3,2,5,
{12}1,2,3,6,5,4,2,3,4,7,6,5,3,4,5,8,7,6,3,2,1,8,7,6,
{6}E2,E1,E8,E4,E5,E6,Ch[2:1],,,,,,
{16}8b/5b,74,63,52,,,,,1b/4b,25,36,47,,,,,8b/5b,74,63,52,,,,,2b/6b,,,,,,,,
5b/8b,61,72,83,,,,,4b/1b,38,27,16,,,,,5b/8b,61,72,83,,,,,3b/7b,,,,,,,,
{8}1b,5,2,6,3,7,4,8,{12}5b,1,4,8,3,7,2,6,1,5,8,4,
(192){4}7b>3[4:5],3,4,5,6,7,
8^5[4:5],5,4,3,2,1,
(151)2^4[4:5],1,8,7,6,5,
(110)6^5[4:5],7,8,1,2,3,
{256}B1/B2/B3/B4/B5/B6/B7/B8/E4f/D4,,,,,
{4},,,,,,,,
,,,,,,,,
E
