&title=天才ロック
&artist=烏屋茶房
&first=0
&des=TENSAI・THE・ROCK!
&lv_5=13+
&inote_5=(196){4},{8},,,,,,,,,,,3,
3,3,
{4}5b/4b>1[4:3],5,5,5,
5,5,{8}5,{16}3,4,{4}5,
4/5<8[4:3],4,4,4,
4,4,{8}4,6h[96:1],5,7h[96:1],
{4}5b/7b>2[4:3],5,5,5,
5,5,{8}5,{16}7,6,{4}5,
4/2<7[4:3],4,4,4,
4h[4:1],1b,{16}2,6,2,6,2,6,2,6,
{4}3b/7bh[4:3],{8}5,5,4,4,3,3,
{4}4b/2b-5[8:1],2/8-3[8:1],8/1v4[8:1]*v6[8:1],1,
{8}7b/3b,7/3,6,3/5<8[8:1],4,3,2,3/7h[4:1],
,8,1,2,4/3,5,4/2,1,
6/2,6/2,3,6/4>1[8:1],5,6,7,6/2h[4:1],
,1,8,7,6/5,{16}4,5,4,5,{8}4,
5b/3b<6[8:1],5/3,8,8-4[8:1],5,4,3,5/2h[4:1],
,1,8,7,6/5,4,5/7,8,
4/7<4[8:1],7/4,1,1-5[8:1],5,6,7,4/8h[4:1],
,1,2,3,5/4,{16}6,5,6,5,{8}6,
{4}7b/4b-1[2:1],7,7,7h[4:1],
5h[4:1],4h[4:1],{8}2,{16}2,3,{4}4,
4/5-8[2:1],4,4,4h[4:1],
{8}7,4,6,4,5,3h[96:1],4,2h[96:1],
{4}4b/1b-5[2:1],4,4,4h[4:1],
2h[4:1],8h[4:1],{8}6,{16}6,5,{4}4,
3/6-2[2:1],3,3,3-8[8:1],
5-3[8:1],5/1-5[8:1],1/8-4[8:1],8/2-7[8:1],
2b/6bh[4:1],{16}8,6,8,6,1,5,1,5,2,4,2,4,
{4}3bh[4:1],{16}1,3,1,3,8,4,8,4,7,6,{8}5,
{4}7/8,7/8,{8}7/8,7/8,{4}7/8,
1/2,{8}1/2,1/2,,1/2,{4}1b/2bqq3[8:3],
4,{8}6,{16}6,5,{4}4<1[4:1],2,
4qq3[4:1],{8}7,{16}7,6,{4}5-8[8:1],{8}1,4bh[4:1],
,7,6/5,3,6/4,2-6[8:1],5/3,7b,
,{16}1,8,2,7,1,8h[32:9],{4}2h[32:7],{32}7/3,6/4,{16}5,{8},{4}7b-2[8:1]/1b-4[8:1],
7b/1b<4[16:3],{8}1/3,2,2,2,
{4}2b-7[8:1]/1b-4[8:1],2b/1b>6[16:3],{8}1/5,8,8,8,
7b-4[8:1],7,8,1,2b-5[8:1],2,1,8,
7b/4b,4/7>2[8:1],,{16}3,4,5,6,7,8,1,2,3,4,
{8}5b/6b,6/5,7/4,8/3-8[8:1],,4h[4:1],,1,
4/2,4/2,{4}1/5-3[8:1],2-6[8:1],8,
{8}1/7,1/7,2/6,5/3<6[8:1],,8-4[8:1],,8b/1h[4:1],
,5b,6b/2b,7b/3b,4b/8bh[8:1],{16}3,2,{4}1b,
1b-4[8:1]/5b-8[8:1],5b/1b<4[16:3],{8}1/3,2,2,2,
{4}1b-5[8:1]/4b-8[8:1],4b/1b>6[16:3],{8}7/1,8,8,8,
7b-3[8:1],7,8,1,2b-6[8:1],2,1,8,
7b/5b,7/5>2[8:1],,{16}1,8,7,6,5,4,3,2,1,8,
{4}3b/7bh[4:1],{16}5,6,5,6,4,5,4,5,3,4,3,4,
{4}5b/2bh[4:1],{16}4,2,4,2,5,4,5,4,7,5,7,5,
{4}4b/8b-5[8:1],{8}8/3-8[8:1],2,3/6-3[8:1],7,6/1,2,
{2}4/1h[2:1],{4}8-5[8:1]*q5[8:1],8,
{1}4b/6b-2[4:3],
{2}3h[2:1],{6}8,7,6,
{1}5b/3b-7[4:3],
{2}6h[2:1],{6}8,1h[96:1],2h[96:1],
{1}3b/7b-3[4:3],
{2}2h[2:1],{6}1h[96:1],8,7,
{1}6b/2b-6[4:3],
{6}8h[96:1],8,8,1,1h[96:1],1h[96:1],
{4}8b/2b,2,2,2,
2/5-3[8:1],2,2/4-6[8:1],2,
7b/3b,7,7,7,
7/4-6[8:1],7,{2}5-1[8:1]/7-5[8:1],
{4}4b/3bh[4:1],{16}1,3,1,3,8,4,8,4,7,5,7,5,
{4}6bh[4:1],{16}8,6,8,6,1,5,1,5,2,4,2,4,
{4}3b,1/2,{8}1/2,1/2,{4}1/2,
7/8,{8}7/8,7/8,,7/8-4[8:1],7/8,5b,
,{16}3,7,3,7,3,7,2,8,2,8,2,8,2,8,
1,1,1,1,1,1,1,1,{2}1w5[8:1],
{1}7h[8:27]/3h[8:27],
,,,2h[2:7]/6h[8:23],
{2},,,,,{4}6-3[8:1],
2,
5b/4b,5,{8}5,3,{4}5,
5/4,{8}5,3,5,{16}3,4,{4}5,
6/4,4,{8}4,8,{4}4,
6/4,{8}4,8,4,6h[96:1],5,7h[96:1],
{4}8b/5b,7/5,6/5,{8}3,4,
{4}1/4,2/4,{8}3/4,{16}5,6,{4}7-4[8:1],
3-8[8:1],{8}6-1[8:1],6,2-5[8:1],2,7-3[8:1],7,
{4}3b,1,1,1-5[8:1],
1b-4[8:1]/7b-2[8:1],7b/1b<4[16:3],{8}1/3,2,2-6[8:1],2,
{4}1b-4[8:1]/2b-7[8:1],2b/1b>6[16:3],{8}1/5,8,8,8,
1b/7b-4[8:1],7,8,1,6b/2b-5[8:1],2,1,8,
7b/4b,4/7>2[8:1],,{16}3,4,5,6,7,8,1,2,3,4,
{8}5b/6b,7/4,8/3,1/2-7[8:1],,4h[4:1],,1,
4/2,5/3,{4}4/6-3[8:1],2-5[8:1],8,
{8}8/7,1/6,2/5,3/4<7[8:1],,8-4[8:1],,8b/1h[4:1],
,5b,6b/2b,7b/3b,4b/8bh[8:1],{16}3,2,{4}1b-5[8:1],
1b>4[8:1]/6b-2[8:1],6b/1b<4[16:3],{8}1/3,2,2,2,
{4}1b-5[8:1]/3b-7[8:1],3b/1b>6[16:3],{8}8/1,7,7,7,
1b/6b-2[8:1],6,5,4,8b/3b-7[8:1],3,4,5,
6b/8b,6/8>3[8:1],,{16}5,6,7,8,1,2,3,4,5,6,
{4}3b/7bh[4:1],{16}5,6,5,6,4,5,4,5,3,4,3,4,
{4}5b/2bh[4:1],{16}4,2,4,2,5,4,5,4,7,5,7,5,
{4}4b/8b-4[8:1],{8}8/3-8[8:1],2,3/5-8[8:1],6,5/1,2,
{4}3b-8[8:1]/7b-4[8:1],3/7,{8}1-4[8:1]/5-8[8:1],1/5,{4}5/1w5[8:1],
1b,{8}3/7h[4:3],3,4,4,5,5,
6,6,7/8,7/8,1/6,1/6,5/2,5/2,
{4}4v1[8:1]/3-1[8:1],4/3,{8}7-5[8:1]/8v5[8:1],7/8,{4}7/8,
{32}3,2,1,8,7,6,5,4,3,2,1,8,7,6,5,4,{16}8,4,8,4,8,4,8,4,
{8}3b/7bV53[8:1],7/3,1,1-5[8:1],5,6,7,4/8h[4:1],
,1,2,3,4/6,3/7,4/6,3/7,
6/2V46[8:1],6/2,8,8-4[8:1],4,3,2,5/1h[4:1],
,8,8/7,1/6,2/5,{16}3,4,3<8[4:1],4,{8}3,
{4}8bV24[4:1],4<8[4:1],8V24[4:1],{8}4<8[4:1],4,
{4}8V24[4:1],{8}4<8[4:1],4,{4}8,{8}4,4,
1b/7b,1/7h[8:1],{16}5,6,{8}4,2b/8b,8/2h[8:1],{16}4,3,{8}5,
8/6-1[8:1],2-5[8:1],6,2,7,8-5[8:1]/4z8[8:1],1/5,8b/4b,
