&title=Chaotic Love Revolution
&artist=ポリスピカデリー; 初音ミク
&first=0
&des=IMRIS
&lv_5=13
&inote_5=(115)
{4},,,,
{4}4h[4:3],E6,,E3,5h[4:3],E4,,E7,2h[4:3],E1,,E4,
{16}7h[16:3],,,6h[16:3],,,5,,4w8[8:1],,,,4b,,,,
{16}6-1-4[8:2],1h[16:2],,,2<7[8:1],,3,,,,,,6,7-3[8:1],1,6,
{16},7h[16:2],,,6,,53,,{8}43,2,18,7,
{16}3-8-5[8:2],8h[16:2],,,7>2[8:1],,6,,,,,,3,2-6[8:1],8,3,
{16},2h[16:2],,,1,,27,,4,4,5,3,6b/2b,,,,
{8}4h[4:3],,B2/E3,,,B6,B5/E6,,
{8}6h[4:3],,B8/E8,,,E3,B4/E4,,
{8}2h[4:3],,E8/B8,,,B4,B3/E3,,
{8}5h[8:5],,B8/B1,,,B3,{16}5,6-4[16:1]/4,,,
{8}63,,1h[8:1],3,8h[8:1],6,5/4pp8[8:3],62,
{16}4/1,,,4,,,3-7[8:1],,2-4[8:1],,,,,,,,
{8}5,7-2[8:1]/4,8,3-6[8:1],4,5qq1[8:3],7,5/8<5[8:1],
{16},,8,,,,3,3,24,,5,,5/7-1[8:1],,6,,
{8}2-7[8:1],3,6-2[8:1],5,{16}3-7[8:1],3,,,4-2[8:1],,5,,
{8}6-4[8:1],7,8-6[8:1],1,2-8[8:1],3,4-7[8:1],,
{16}4-1[16:1],,,4-6[16:1],,,4-2[16:1],,,4-8[16:1],,,4,,1,,
{8}37,6,2qq4[8:2]/5pp3[8:2],78,25,,,,
{16}2V48[8:2],,,8,,,7,6,5V71[8:2],,,1,,,3,4,
{16}5,,4-1[8:1]/7,,1-4[8:1]/2,,4-7[8:1]/6,,7-5[8:1],,6-2[8:1],,8,,,,
{16}1,,3,,46,,7,,1V72[8:2]/4,,2,,1/5qq8[8:3],,6,,
{8}5b,,Cf,,{16}2,,45,,6,3,45,,
{8}6,7>6[8:3],8,1h[8:3],,,,,
{8}2,3>4[8:3],1,1h[8:3],,,,,
{8}8,7>3[8:3],6,5h[8:2],,,4>5[8:3],3,1h[8:2],,,2-8-4-6[16:5],,,,,
{8}7,6>7[8:3],5,4h[8:3],,,,,
{8}2,3<2[8:3],1,3h[8:3],,,,,
{16}2h[8:1],,4h[8:1],,6h[8:1],,7,6,75,,81,,24,,{24}7,6,5,
{16}14,3b/2b,,,5b/6b,,,8b/1b,,,,,,,,,
{8}13,3,3qq8[16:5]/4,3,3/7<5[16:1],{16},7,,,,,
{8}78,7,7qq4[16:5]/5,7,7/1>3[16:1],{16},1,,,,,
{8}13,4,5q6[8:2]/7,8,6p4[8:2]/5,,4>5[8:3],5h[8:2],,,,,{16}6,75,,3,42,,3,,
{8}5/3,5,5q4[16:3]/7,{16}5,3>7[16:3],5,,,3,,,,,
{8}1/7,1,1q8[16:3]/3,{16}1,7<3[16:3],1,,,7,,,,,
{8}8/6,5,4p3[8:2]/2,1,3q5[8:2]/4,,5<4[8:3],4h[8:2],,,,,{16}1h[8:1],,6,,75,,4,4,
{8}3b/7bV52[8:2],,2V47[8:2],1,8,1,2V46V48[8:4],4,,6,7,6h[8:2],,1,{16}7,3h[16:2],,,
{8}4/8V63[8:2],,3V58[8:2],2,8,1-7-2-6-3-5[8:6],,6h[8:2],,,5,4,,,8,{16}3,3,
{8}6b/2bV47[8:2],,7V52[8:2],8,1,8,7V53V51[8:4],5,,3,2,3h[8:2],,8,{16}2,6h[16:2],,,
{8}5/1V36[8:2],,6V41[8:2],7,1,8qq2qq8>6[8:6],,2h[8:2],,,3,4,,,1-6[8:1],{16}2,3,
{16}1b/4,,,5,,7-4[8:1],3/6,,5,7,,,3,4,1,,
{16}2/4-7[16:1],,,34,,,2,8,4>1[32:5],6,,,8x-3[8:1],7x,6x,5x,
{16}4x/8x,,,4,,2-5[8:1],6/3,,4,2,,,6,5,8,,
{64}7bxqq1[8:3]/2bxpp8[8:3],E7/E3,B6/B3,B5/B4,,,,,{8},,,,,{64}E6,B5,B4,E4,,,,,{8},
{16}53,1h[8:1],,8,6,,5,,46,,7,,3,4,1,3-6[8:1]/4,,2h[8:1]/3,,,1,,7,,86,,7,,24,,3,,
{16}46,8h[8:1],,1,3,,4,,53,,2,,6,5,8,6>3[8:1]/5,,7h[8:1]/6,,,8,,2,,6,1,1,4,3,2b/5b,,6,
{16}7/8V27[16:3],1h[8:1],,,{8}3V14[16:3],4,3,8,{16}6,5,8,6,
{16},7/6-2[16:1],,,{8}8-5-7[16:3],7,4>1[16:3],3,{16}8,7,6,5,
{16}4V63[16:3],8h[8:1],,,1,,2,,2,4,34,,8,,4qq5[8:3],5,
{8}6pp5[8:2],,,,,,B3/B4/B5/B6/E3/E5/E7/C/B2/B7,,
{8}2p5[8:1],,2/7p1[8:1],6,7/3,2<7[8:1],,28,,6<4[8:2],5,64,,,{16}3,5-2[16:1],,,
{8}7>4[8:2]/5,,4-1-6[8:2],5,6,5-8[8:1],,5/2qq7[16:5],,7,6,5,{16}4,48,,2,26,,5,,
{8}7q4[8:1],,7/2q8[8:1],3,2/6,7>2[8:1],,71,,3>5[8:2],4,35,,,{16}6,4-7[16:1],,,
{8}2<5[8:2]/4,,5-8-3[8:2],4,3,4-1[8:1],,4/7pp3[16:5],,2,3,4,{16}5x,4x,3x,2x,1x/8x,7x,6x,5x,
{8}4bpp4[8:6]*qq4[8:6]/8b,,,,,,,,
E
