&title=夜の向日葵
&artist=松本文紀
&first=-1.6200001
&des=音無彩名
&lv_5=14
&lv_6=13
&inote_5=(41)
{8},,,
{8}1b,,,,8b,
{16},,,,,,,1s5[16:3],2,3,4,,,,,
{32},{16}8z4[16:3],7,6,5,{32},{16},,,,
{16}5h[4:1],6,4,7,3h[4:1],2,4,1,
6h[4:1],7,5,8,4h[4:1],3,5,2,
6h[4:1],7,8,1,2<3[8:3],,6,7,
8,,,1,8,7,6,5,
{16}5-3[16:1],7-3[16:1]/3,1-7[16:1]/3-7[16:1],,,,,,
4q6[16:2]/7>3[8:1],2/5,6p4[16:2]/1,3/8,4/7,,,,
{16}1-3[16:1],5-7[16:1]/7,7-3[16:1]/3-7[16:1],,,,,,
{16}6q8[32:4]/1-5[16:1],5-1[16:1]/7,8p6[32:4]/2,3/5,1/6,,,,
{16}2-4[16:1],8-4[16:1]/4,6-8[16:1]/4-8[16:1],,,,,,
8q2[16:2]/3<7[8:1],6/1,2p8[16:2]/5,7/4,8/3,,,,
{16}6-8[16:1],2-4[16:1]/4,4-8[16:1]/8-4[16:1],,,,,,
{16}2q4[32:4]/5-1[16:1],1-5[16:1]/3,4p2[32:4]/6,7/1,5/2,,,,
{32}6^3[16:1],,,,6p3[16:4],7,8h[32:6],7,6-1[16:1],,,,,,,,6^3[16:1],,,,
2q5[8:2],1,8h[16:3],,6^1[16:1],,,,,,,7,6-2[16:1],,,,3q4[8:2],2,1h[16:3],,6^1[16:1],,,,,,,,6^3[16:1],,,,1-5[16:1],8,7h[16:3],,6,,,,,,,,
{16}3-5[16:1],7-5[16:1]/1,5-7[16:1]/1-5[16:1],,,,,,
8^3[16:1]/4p4[8:1],3^8[16:1]/5,8^5[16:1]/4,5^8[16:1]/3,8/4,,,,
{16}3-5[16:1],1-5[16:1]/7,7-5[16:1]/5-7[16:1],,,,,,
5^2[16:1]/1-5[16:1],2>8[16:2]/5-1[16:1],5/1,8^5[16:1]/5,5/1,,,,
{16}8-2[16:1],4-2[16:1]/6,2-4[16:1]/6-2[16:1],,,,,,
5^2[16:1]/1q1[8:1],2^5[16:1]/8,5^8[16:1]/1,8^5[16:1]/2,5/1,,,,
{16}8-2[16:1],6-2[16:1]/4,4-2[16:1]/2-4[16:1],,,,,,
4^7[16:1]/8-4[16:1],7<1[16:2]/4-8[16:1],4/8,1^4[16:1]/4,4/8,,,,
{32}8h[8:2],,,,,,,,,,3,,5q5[8:2],,3,,
1-7[16:1],,,,5p2[8:2],,3,2,1-4[16:1],,,,2<4[8:2],3,,,1-5[16:1],,,,4q7[8:2],3,2,,1-4[16:1],,,,7>5[8:2],,,,1-6[16:1],,,,5q6[8:2],4,3,,1-5[16:1],,,,6p8[8:1],7,,,1-3[16:1],,,,5,4,,,1,,6,,4p4[8:2],,6,,
8-2[16:1],,,,4q7[8:2],,6,7,8-5[16:1],,,,7>5[8:2],6,,,8-4[16:1],,,,5p2[8:2],6,7,,8-5[16:1],,,,2<4[8:2],,,,8-3[16:1],,,,4p3[8:2],5,,,8-4[16:1],,,,3q5[8:2],2,,,8<2[8:2],,,,,,6,7,8q1[16:6],,,,,,,,
{2}8b,
{16}
2-4[16:1]/8-6[16:1],4-8[16:1]/6,8-2[32:2]/4-6[16:1],,,,,,
3p6[16:1]/7p2[16:1],6<6[8:1]/2>2[8:1],5/1,2/6,3/7,,,,
2-4[16:1]/8-2[16:1],4-8[32:2]/6,8-6[16:1]/4-6[16:1],,,,,,
2>6[16:1]/6<2[16:1],2p6[128:7]/6p2[128:7],2p1[16:1]/6p5[16:1],3/7,2/6,,,,
8-6[16:1]/2-4[16:1],6-2[16:1]/4,2-8[32:2]/6-4[16:1],,,,,,
6q3[16:1]/2q7[16:1],3>3[8:1]/7<7[8:1],4/8,7/3,6/2,,,,
8-6[16:1]/2-8[16:1],6-2[32:2]/4,2-4[16:1]/6-4[16:1],,,,,,
7<3[16:1]/3>7[16:1],7q3[128:7]/3q7[128:7],7q8[16:1]/3q4[16:1],6/2,7/3,,,,
{32}3^6[16:1],,,,3q6[16:4],2,1h[32:6],2,3-8[16:1],,,,,,,,3^6[16:1],,,,
7p4[8:2],8,1h[16:3],,3^8[16:1],,,,,,,2,3-7[16:1],,,,6p4[8:2],7,8h[16:3],,3^8[16:1],,,,,,,,3^6[16:1],,,,8-4[16:1],1,2h[16:3],,3,,,,,,,,
2q4[8:1],,,,6^8[32:2],5,8^6[16:1],1,2^5[32:3],,,,6q1[16:2],,,,2<7[32:3],,,,6^4[16:1],3,4^6[16:1],,2p4[32:3],,,,6^1[32:3],,,3,2q5[16:2],,,,6,5,4,3,2<2[8:2],,,,
{128},{32}6h[32:9],,4,,2-6[8:1],,,,,,,,{128},,8,,,,,8,,,,,,,,
{8},,,,,,
E
&inote_6=(41)
{8},,,
{8}8b,,,,1b,
{16},,,,,,,8q4[16:3],7,6,5h[32:11],,,,,
{32},{16}1p5[16:3],2,3,4h[32:7],{32},{16},,,,
{16}1p4[8:2],2,3,4,5p8[8:2],6,7,8,
1p4[8:2],2,3,4,5,6,7,8,
1h[4:1],8,7,6,5p4[8:3],,8,1,
2,,,3,2,1,8,7,
{16}8-6[16:1],1-5[16:1],2-4[16:1],,,,,,
{16}3<6[32:3],5<8[32:3],7>2[32:3],1>3[32:2],3h[16:3],,,,
{16}8-4[16:1],7-5[16:1],1-3[16:1],,,,,,
{16}6>3[32:3],4>1[32:3],2<7[32:3],8<6[32:2],6h[16:3],,,,
{16}8-2[16:1],7-3[16:1],6-4[16:1],,,,,,
{16}3^8[32:2],8q4[32:2],4q8[32:2],8^5[32:2],3h[16:3],,,,
{16}2-6[16:1],1-7[16:1],3-5[16:1],,,,,,
{16}6^1[32:2],1p5[32:2],5p1[32:2],1^4[32:2],6h[16:3],,,,
{32}7^4[16:1],,,,7,8,1h[32:6],8,7-2[16:1],,,,5h[16:5],,,,7^4[16:1],,,,
3,2,1h[16:3],,7^2[16:1],,,,4h[16:5],,,6,7-3[16:1],,,,2,1,8h[16:3],,7^2[16:1],,,,6h[16:5],,,,7^4[16:1],,,,3,4,5h[16:3],,7,,,,3h[16:2],,,,
{16}8-4[16:1],1-5[16:1],2-6[16:1],,,,,,
2-5[128:7],4-7[128:7],6-1[128:7],8-3[128:7],2h[16:3],,,,
{16}8-4[16:1],7-3[16:1],1-5[16:1],,,,,,
7-4[128:7],5-2[128:7],3-8[128:7],1-6[128:7],7h[16:3],,,,
{16}8-4[16:1],7-3[16:1],6-2[16:1],,,,,,
2-4[128:7],5-1[128:7],8-4[128:7],5-7[128:7],2h[16:3],,,,
{16}2-6[16:1],3-7[16:1],1-5[16:1],,,,,,
7-5[128:7],4-8[128:7],1-5[128:7],4-2[128:7],7h[16:3],,,,
{32}8h[8:2],,,,,,,,,,4,,5,,6,,
7-5[16:1],,,,2q4[8:2],,1,8,7-1[16:1],,,,4p2[8:2],5,,,7-5[16:1],,,,2q8[8:1],1,8,,7,,,,7<2[8:2],,,,1-5[16:1],,,,2>8[8:2],3,4,,1-6[16:1],,,,8<4[8:1],7,,,1-4[16:1],,,,3,2,,,1,,5,,4,,3,,
2-4[16:1],,,,7p5[8:2],,8,1,2-8[16:1],,,,5q7[8:2],4,,,2-4[16:1],,,,7p1[8:1],8,1,,2,,,,2>7[8:2],,,,8-4[16:1],,,,7<1[8:2],6,,,8-3[16:1],,,,1>5[8:1],2,,,8p5[16:4],,,,,,6,7,8>8[16:6],,,,,,,,
{2}8b,
{16}
1v7[16:1],1-5[16:1],1v3[32:2],,,,,,1p7[16:2],5,3p1[16:2],7,5,,,,
8-4[16:1],8v2[32:2],8v6[16:1],,,,,,8q2[16:2],4,6q8[16:2],2,4,,,,
2v4[16:1],2-6[16:1],2v8[32:2],,,,,,2p7[8:1],4,6p3[8:1],8,4,,,,
7-3[16:1],7v5[16:1],7v1[32:2],,,,,,7q2[8:1],5,3q6[8:1],1,5,,,,
{32}2^5[16:1],,,,2,1,8h[32:6],1,2-7[16:1],,,,4h[16:5],,,,2^5[16:1],,,,
6,7,8h[16:3],,2^7[16:1],,,,5h[16:5],,,3,2-6[16:1],,,,7,8,1h[16:3],,2^7[16:1],,,,3h[16:5],,,,2^5[16:1],,,,6,5,4h[16:3],,2,,,,6h[16:2],,,,
{32}1^4[16:1],,,,1q4[16:4],8,7h[32:6],8,1-6[16:1],,,,,,,,1^4[16:1],,,,
5p2[8:2],6,7h[16:3],,1^6[16:1],,,,,,,8,1-5[16:1],,,,4,5,6,7h[32:5],1<2[8:2],,,,,,
{128},{32}5,,4-8[8:1],,,,,6,,,{128},,7,,,,,7,,,,,,,,
{8},,,,,,
E
&inote_7=(41)
{1},,,,
{16}
2<6[16:1]/6>2[16:1],2q7[128:7]/6q3[128:7],3<3[16:1]/7>7[16:1],3/7,2/6,,,,
3<6[16:1]`7>2[16:1],2q4[16:1]`6q8[16:1],3`7,8`4,,,,
