&title=LABYRINTHOX
&artist=BlackYooh vs. siromaru
&first=0
&des=Hamorati
&lv_5=14
&des_5=Hamorati
&inote_5=
(200){4},{1},,{4},,,{32}8x/1xV35V71[2:7],
2x/7x,3x/6x,4x/5x,{4},,,{16},,{1}2,
3,
4,
{32}1x/8xV64V28[2:7],7x/2x,6x/3x,5x/4x,{4},,,{16},,{1}7h,
6h,
5h,
{4}6/3-5[8:1],{8}3,6,3,6,{4}3,
{8}7,8,7v4[8:1],8,{4}7,{8}3-1[8:1],6,
{4}3/6-4[8:1],{8}6,3,6,3,{4}6,
{8}2,1,2v5[8:1],1,{4}2,{8}1,1,
2,2,4,4,5,5,6,6,
8,8,2,2,3,3,5,5,
{16}1,2,3,4,5,6,7,8,1,2,3,4,5,6,7,8,
{4}1b-5[2:1],8,3,6,
5b-2[16:3]/1b-6[16:3],1/5,{16}3/7,8/4,5/1,2/6,{4}3-8[8:1]/7-4[8:1],
7-2[8:1]/3-6[8:1],3/7<4[16:3],{16}7/4,3,2,1,{4}8/6-2[8:1],
6/2,{8}3-5[8:1],4,3,7-3[8:1],8,7,
5-7[8:1],4,5,2-5[8:1],1,2,1,8,
{4}7bxv4[8:1]/3bx<7[4:1],7>3[4:1],{16}3,4,5,6,{4}7-3[8:1],
7/3,{8}5h[8:1],4h[8:1],3h[8:1],2h[8:1],{4}1<6[4:1],
6>8[2:1],{8}E1,E8,E7,E6,{4}E5,
{8}1<6[8:1],1,{4}1>4[8:1],1-5[8:1],1,
4b-7[16:3]/8b-3[16:3],8/4,{16}6/2,1/5,4/8,7/3,{4}6-1[8:1]/2-5[8:1],
2-7[8:1]/6-3[8:1],6/2>5[16:3],{16}2/5,6,7,8,{4}1/3-7[8:1],
3/7,{8}6-4[8:1],5,6,2-6[8:1],1,2,
4-2[8:1],5,4,7-4[8:1],8,7,8,1,
{4}6bx>2[4:1]/2bx-5[8:1],2<6[4:1],{16}6,5,4,3,{4}2-6[8:1],
2/6,{8}4h[8:1],5h[8:1],6h[8:1],7h[8:1],{4}8v3[8:1],
{8}8,7,6,5<8[8:1],4,3,2>5[8:1],1,
8-4[8:1],,,7-3[8:1],,,{4}6-2[8:1],
{2}6b,{8}7,7,7,7,
{4}7,{8}7,7,{16},,7,7,{4}7,
{16},,,,7,7,{8}7,{16},,7,7,{4}7,
7<4[4:1],4>1[4:1],1<6[4:1],6>3[4:1],
{2}3b,{8}3,3,{16}3,3,{8}3,
{4}5x/4x,{16}3,3,{8}3,{16},,3,3,{4}3,
4x/5x,{16}3,3,{8}3,{16},,3,3,{4}3,
3<6[4:1],6<1[4:1],1>4[4:1],4,
{1}8<8[1:1],
{4}8V64V28[1:1],,,3,
{2}8<8[1:1],3,
8qq4[1:1],3,
{1}4<4[1:1],
{4}4V68V24[1:1],,,3,
{2}4<4[1:1],3h[4:1],
4V68[2:1],3,
{4}7b/3b,3/6,3/5,{8}3,6,
3,6-4[8:1],3,6,{4}3,3/5,
3/6,3/7,3/8,{8}3,8,
3,8-4[8:1],3,8,{4}3,3/6,
3/6,4/6,6/4,{8}6,3,
6,3-5[8:1],6,3,{4}6,6/4,
6/3,6/2,6/1,{8}6,1,
6,1-5[8:1],6,1,{2}6,
{32}1bx,2/8,7/3,6/4,{8}5-8[8:5]*-3v2-8[8:5],{1},{4},,,{32}1bx,
2/8,3/7,4/6,{8}5v2[8:5]*v8[8:5],{1},{4},,,{32}1bx,
2/8,3/7,4/6,{8}5>2-6<1[8:5]*>2-6<1[8:5],,,,,,,,,,,,,,,{4}3b/5b,
5b/3bh[4:3],,,{1}1>5[2:1]*<5[2:1],
{4}1/Cfh[2:1],1,1,1,
2/Cfh[2:1],2,2,2,
3/Cfh[2:1],3,3,3,
4/Cfh[2:1],4,4,4,
5/E4f,5/B3f,6/B2f,6/E2f,
4/E6f,4/B6f,3/B7f,3/E8f,
{16}4,5,4,5,3,6,3,6,2,7,2,7,1,8,1,8,
{8}2x/4x,5x/3x,6x/4x,7x/5x,{16}1,2,3,4,5,6,7,8,
1b>5[8:1],,,1,{8}1,6,{16}2>6[8:1],,,2,{8}2,7,
{16}8-5[8:1],8,8,8,{4}8,{16}8-3[8:1],8,8,8,{4}8,
{16}8<4[8:1],,,8,{8}8,3,{16}7<3[8:1],,,7,{8}7,2,
{4}5,{8}2-5[8:1],5-2[8:1],2-7[8:1],7-2[8:1],6,6,
{16}4>8[8:1],,,4,{8}4,7,{16}3>7[8:1],,,3,{8}3,6,
{16}5-8[8:1],5,5,5,{8}5,1x,5x-2[8:1],5x,{4}5x,
{8}1/6,{16}7,8,{8}7,{16}2,1,{8}2,3/8,{4}5/4,
{8}7/4,{16}6,5,{8}6,2/5,{16}3,4,{8}3,{4}8b/1b,
{16}8b<4[8:1],,,8,{8}8,3,{16}7<3[8:1],,,7,{8}7,2,
{16}1-4[8:1],1,1,1,{4}1,{16}1-6[8:1],1,1,1,{4}1,
{16}1>5[8:1],,,1,{8}1,6,{16}2>6[8:1],,,2,{8}2,8,
{4}7-5[8:1],7/8-4[8:1],8/1-3[8:1],1b,
{8}7/4,{16}6,5,{8}6,4/7,4/7,{16}6,5,{8}6,4/7,
2/5,{16}3,4,{8}3,5/2,5/2,{16}3,4,{8}3,5/2,
{16}6,5,6,5,6,4,7,4,7,3,8,3,8,2,{8}1,
2b/1b,3,4,6b/5b,7,8,{4}2b/1b,
{8}3<5[8:1],{16}1,2,{8}3,7,6>4[8:1],{16}8,7,{8}6,3,
1>4[8:1]*<6[8:1],5,{4}1-5[8:1],1,{16}8,1,{8}8,
3>1[8:1],{16}5,4,{8}3,7,6<8[8:1],{16}4,5,{8}6,3,
{4}1b,{8}4/3,2,5/6,7,1/8,{16}3,4,
{8}3,2>5[8:1],1,8,7>2[8:1],7,{16}6x,5x,{8}4x,
3,2<8[8:1],{16}4x,3x,{8}2x,5,7>1[8:1],{16}5x,6x,{8}7x,
4,3-8[8:1],{16}3,4,{8}3,6-1[8:1],{16}6,5,{8}6,4x>1[8:1],
5,6,7x<4[8:1],8,1,2x<7[8:1],3,4,
3b<5[8:1],{16}1,2,{8}3,7,6>4[8:1],{16}8,7,{8}6,3,
1-4[8:1]*-6[8:1],5,{4}1-5[8:1],1,8/1,
{8}3>1[8:1],{16}5,4,{8}3,7,6<8[8:1],{16}4,5,{8}6,3,
{4}2/1,{8}4/3,2,5/6,7,1/8,2,
{16}3b,4,{8}3,{16}6,5,{8}6,{16}3b,4,{8}2,{16}6,5,{8}7,
{16}3b,4,{8}1,{16}6,5,{8}8,{16}2b,3,{8}1,{16}7,6,{8}8,
{16}1b,7,3,5,2,8,4,6,1,7,3,5,2,6,4,8,
{4}1b-5[2:1],{8}7,2,{4}6,4b,
5b-2[16:3]/1b-6[16:3],1/5,{16}3/7,8/4,5/1,2/6,{4}3-8[8:1]/7-4[8:1],
7-2[8:1]/3-6[8:1],3/7<4[16:3],{16}7/4,3,2,1,{4}8/6-2[8:1],
6/2,{8}3-5[8:1],4,3,7-3[8:1],8,7,
5-7[8:1],4,5,2-5[8:1],1,2,1,8,
{4}3bx<7[4:1]/7bx-4[8:1],7>3[4:1],{16}3,4,5,6,{4}7-3[8:1],
3/7<4[16:3],{16}8/7,1,2,3,,,1,1,{4}1,
{16}3,4,2,6,5,7,3,4,1,6,5,8,2,6,4,7,
{24}1bx,2x,3x,4x,5x,6x,7bx,8x,1x,2x,3x,4x,8bx/5bx,7x,6x,5x,4x,3x,2x,1x,4x/8x,3x/7x,2x/6x,1x/5x,
{1}8bx/4bx,
E
