&title=未来飛行
&artist=山崎はるか
&first=0
&des=DfC
&lv_5=13
&inote_5=(175)
{1},,,,,{8},,,{16},
{8}4b-1[2:3]/5,,,,,,,,
,,,,,,,,
4/5b-8[8:5],,,,,,,1h[4:1],
,8,27,27,3-7[8:1]/6-2[8:1],36,3b/6b,,
{8}3-1[8:1]/4-8[8:1],,,,5-1[8:1]/6-8[8:1],,,,
3>6[4:1],,5,5,,7,28,,
5-1[8:1]/6-8[8:1],,,,3-1[8:1]/4-8[8:1],,,,
6V47[4:1],,2,2,,4,35,,
5v2[8:1]/6<1[8:1],,,,3>8[8:1]/4v7[8:1],,,,
6-8[8:1],,4,4,3-1[8:1],5,5,,
27,27,{16}3,4,3,,6,5,6,,4-8[8:1],5,4,5,
{8}4b,,,,,,,,
7h[8:1]/8,,7h[8:1],,7h[8:1],,7h[8:1],,
2-4[8:1]/7h[8:1],,7h[8:1],,6-4[8:1]/7h[8:1],,7h[8:1],,
3h[8:1]/5,,3h[8:1],,3h[8:1],,3h[8:1],,
3h[8:1],,3h[8:1]/4-7[8:1],,3h[8:1],,1-4[8:1]/3h[8:1],,
2h[8:1],,2h[8:1],,2h[8:1],,2h[8:1],,
2h[8:1]/3v5[8:1],,2h[8:1],,2h[8:1]/7v1[8:1],,2h[8:1],,
3/5h[8:1],,5h[8:1],,5h[8:1],,5h[8:1],,
5h[8:1],4,3h[16:1]/6h[16:1],,2-5[8:1]/7-4[8:1],,2b/7b,,
3,2,1>4[8:1],,4,5-2[8:1],,7,
8v3[8:1],,5,4V28[4:1],,8,6,,
6,7,8<5[8:1],,5,4-7[8:1],,2,
1v6[8:1],,4,5V71[4:1],,1,3-8[8:1],,
34,,6,5,4<7[8:1],,2,3,
4>1[4:1],,1<6[4:1],,6>3[4:1],,3qq6[4:3],,
8h[4:3],,,,,,,,
1,1,7,7,4,4,54,,
7h[4:1],,5h[4:1],,4h[4:1],,3,3h[8:3],
,8,8h[4:3],,7,,5,,
2h[4:1],,4h[4:1],,5h[4:1],,6,6h[8:3],
,1,1h[2:1],,8-4[8:1],8,,,
3b/5b,,7,8,1-6[8:1],2,3,,
46,,2,1,8-3[8:1],7,6,,
8-5[8:1],,87,,8-4[8:1],7,86,,
1-4[8:1],,12,,1-5[8:1],2,1>7[4:1]/3,,
1b/4b,,8b,8b>3[8:1]*<5[8:1],,8bpp3[8:3]*qq5[8:3],,8b,
,,,,1w5[8:1],,1b,,
7V16[4:1],,6pp4[8:3],,1>4[8:1],,1,,
2h[4:1],,4,7-4[8:1],,78,1<2[8:3],2h[4:1],
,,1,1,8-4[8:1],,5/8>6[4:1],,
38,,2,2-6[8:1]/7-3[8:1],,2<5[8:3]/7>4[8:3],,27,
,,,,56,56,38,,
1v4[8:1],,13,,1v6[8:1],8,16,,
8q1[8:3],,78,,5,5,37,,
8<5[8:1],3>8[8:1],8q3[8:3]*p5[8:3],3,,,,,
2V83[4:1],,3qq5[8:3],,8<5[8:1],,8,,
7h[4:1],,5,2-5[8:1],,21,8>7[8:3],7h[4:1],
,,8,8,1-5[8:1],,4/1V35[4:1]*V75[4:1],,
1,,,7-3[8:1]/2-6[8:1],,7V14[8:3]/2V85[8:3],,72,
,,,,34,34,16,,
8v5[8:1],,86,,8v3[8:1],1,83,,
1p8[8:3],,21,,4,4,62,,
6pp5[8:3],,4qq5[8:3],4,,,,,
8h[8:3],,7,7-2[8:1],,5,5<1[4:1],,
1>1[2:1],,3h[4:1],,,,2,,
4>1[4:1],,1,,8>3[4:1],,6,,
4z8[4:1],,8,,5,5,15,,
4-1[8:1]*-2[8:1],,4b,,4-6[8:1]*-7[8:1],,4b,,
4-1[8:1]*V28[8:1],,4b,,4-7[8:1]*V68[8:1],,4b,,
4b/2b,4b/2b,,7b/5b,7b/5b,,1b/8b,1b/8b,
,2b/7b,4b/5b,3b/6b-3[8:1]*-1[8:1],,,,,
{1}8>6[2:3],,3p2[4:5]/6q7[4:5],
{8},,,,,{16}3,3,5<1[4:3],,,,
{4}5,5,5,5>1[4:3],
5,5,5,5,
{16}45,,45,,3,6,3,6,2,7,2,7,1,8,1,8,
{8}1-5[8:1],2<3[8:3],1,2,,,,,
1bb/8bV64[4:1],,4pp3[8:3],,8>3[8:1],,8,,
6h[4:1],,5,1V35[4:1],,5V71[4:1],6,7h[4:1],
,,3,3,24,,8<5[8:1],,
1>4[8:1]/8,,17,7,,4>5[8:3]/5<4[8:3],,45,
,,,,18,18,27,,
4q8[8:1],,24,,4p8[8:1],5,48,,
5pp4[8:3],,2,,3qq4[8:3],3,7,,
5h[4:3],,6q4[4:1],6,,,,,
1h[8:3],,2,2-7[8:1],,4,4>8[4:1],,
8<8[2:1],,6h[4:1],,,,7,,
5<8[4:1],,8,,1<6[4:1],,3,,
5s1[4:1],,1,,4,4,84,,
5-8[8:1]*-7[8:1],,5b,,5-3[8:1]*-2[8:1],,5b,,
5-8[8:1]*V71[8:1],,5b,,5-2[8:1]*V31[8:1],,5b,,
42,53,{16}6,5,6,,{8}7h[8:1],8h[8:1],1h[8:1],2h[8:1],
3h[8:1],4h[8:1],5h[8:1],6h[8:1],7,7,82,,
4-2[8:1]/5-2[8:1],,4b/5b,,4-7[8:1]/5-7[8:1],,4b/5b,,
4-8[8:1]/5<8[8:1],,4b/5b,,4>1[8:1]/5-1[8:1],,4b/5b-8[2:1],,
3b,3b,,1b,1b,,2b/7b,2b/7b,
,3b/6b,4b/5b,1h[4:1]/6h[4:1],,,1b/8b,,
1>6[4:1],,4,,1>6[4:1],,4,,
3p7[4:1],,7p3[4:1],7,,6,6,,
8<3[4:1],,5,,8<3[4:1],,5,,
7-2[4:1],,2-7[4:1],2,,3,3,,
6v1[8:1],,5,,3v8[8:1],,4,,
6-8[8:1],,5,5,3-1[8:1],4,4,,
2h[8:1]/7h[8:1],,27,,2,7,2-7[8:1]/7-2[8:1],,
2b/7b,,{16}4,5,3,6,2,7,1,8,2>2[1:4],,,,
2b/8h[1:4],,,,,,,,
