&title=Chaotic Ørder
&artist=TAG VS Kai
&first=0
&des=GØD-FØR PR-plus
&des_5=GØD FØR PR-plus
&lv_5=14+
&inote_5=(165)
{4},,,,
{8}7pp5[4:2]*pp5[4:2],,,,,,2,3,
{8}4z8[8:3]/8-5[8:3],,,,,,7,,
{8}6v8[8:3]/2v4[8:3],,,,,,37,48,
{8}1V74[8:3]/5V38[8:3],,,,,,{16}1,8,1,8,
{4}2b<5[4:6]/7b>4[4:6],,,,,,,,
{16}2/1b>1[16:6],,,5b<1[16:3]*-1[16:3]/6,,,,,,,,,7,5,6,4,
{16}2b/1,,,8p4[16:1]/7b,,,8b/6h[4:2],,,,3,,2,,1,,
{16}8b,,78,,6-8[12:1],5,,5,6,,2,1,3,4,2,,
{16}7,,78,,2-4[12:1],1,,1,2,,6,5,8,7,6,,
{16}3,,45,,7,5,,2,4,,1-5[8:1],8,2,7,1,,
{16}8,,2,1,2,,7,7,{24}1,2,3,5,6,7,2,3,4,6,7,8,
{16}1b,,3,4,3,,2,4,3,5,4,,6,5,7,,
{16}1b/8b,,5,6,5,,7,1,8,2,1,,2,3,4,,
{16}6,,7,8,7,,2,1,2,4,3,,6,5,7,,
{16}1b/8b,,2,7,3,6,4,5,{24}1,2,3,{16}6,5,{24}8,7,6,{16}3,4,
{16}2,1,2,1,3,8,3,8,4,7,4,7,5,6,5,6,
{32}1x,8,7,6,2,1,8x,7,3,4,5,6,7x,8,1,2,6,5,4,3,7,6,5,4,8x,1,2,3,4,5,6,7,
{8}8b/1bpp5[4:2],,7,,6-8[8:1],6,,,
{8},5,4/B8/B7/E8,3,1-5[8:1],2-4[8:1],1,2,
{8}7qq4[4:2],,2,,3-1[8:1],3,,,
{8},4,5/B1/B2/E2,6,78,56,43,12,
{16}7b/8b,,8,7,8,7,8,7,5,6,5,6,5,6,5,6,
{16}3,4,3,4,3,4,3,4,2x,5,4,5,1x,5,4,,
{16}1b/8b,,3,4,2,,6,5,7,,1,8,1,8,1,,
{32}1x/2b,3,4,5,,,8x/7b,6,5,4,,,{48}2b/7b,E3`E7,B3`B6,B4`B5,E5,,{16},,6h[8:3],,7,8,1,2,
{16}3,,5,4,5,,6,5,6,,7,8,7,8,6,,1,71,,8,28,,54,54,,5,4,6,3,7,2,8,
{24}1,2,3,45,6,7,1,2,3,45,6,7,81,2,3,5,6,7,81,2,3,5,6,7,
{16}8/1,,1-6[8:1]*-4[8:1],8,2,,1b,,,,7,8,6,2,1,3,
{16}5,,6,8,6,,7,5,7,,2,2,4,3,5,4,
{16}6-1[16:1],6,,2v5[16:1],2,,8h[8:1],,,,4,5,3,6,2,7,
{32}1,2,3,4,5,6,7,8,15,2,3,4,5,6,7,8,{32}1,2,3,4,7,6,5,4,2,3,4,5,8,7,6,5,
{16}1,,7pp4[4:1],8,6,5,7h[4:1],,,,,,7b<1[8:3],,7,8,6h[8:3],,,,,,,,3b/4,,2V41[16:3],1,2,1<5[16:3],2h[8:3],,
{16},,,,,,,,7b,8,6,5,7,8,5,4,
{24}1bp4[8:1],8,7,6h[4:1],,,,,,,,,1/8b-4[16:1],,,,2-7[16:1]*-5[16:1]/8,,,,,2<2[4:1],,,
{16},,,,,,,,{24}1,8,1,8,1,8,2v7[8:1],7,2,7>4[16:3],2,7,
{16}6h[4:1],,,,,,{32}5x,6x,7x,8x,{16}1b-5[16:1]/5,,,7<4[16:1],,,{32}3q5[4:1],2,1,8,
{32},,,,2h[4:1],,,,{16},,,,3h[16:3]/5,,,6h[16:3],,,2,,
{32}1,2,3,4,1,2,3,4,8,7,6,5,8,7,6,5,2,3,4,5,6,7,8,1,27,6,5,4,3,2,1,8,
{24}2x/7,3x,4x,5x/8,4x,3x,2x/7,3x,4x,5x/8,4x,3x,{16}7x/2x,,18,,{32}7x,6,5,4,3,2,1,8,
{16}7xh[4:2]/2b,,,,3b,,,,4b,,5,7,6,8,1,7,2b,,2h[8:3],,4b,,,,6b,,7,5,6,4,5,3,
{16}4b,2,5h[8:2],,1b,,2,,3b,5,2,4,3b,1,2,8,
{16}1b,7,3,5,1bqq5[8:3],8,2h[4:1],,,,,,{24}2,3,4,,,,
{16}2,5,4,7,4,5,1,8,{32}3,4,3,,6,5,6,,1,2,3,4,8,7,6,5,
{16}2,1,3,7,8,6,4,5,{32}2-5[8:1],1,2,,7-4[8:1],8,7,,{8}2bq5[4:1],7b,
{16},,,,,,8,7,65,,1,2,34,,{24}6,5,6,
{48}4b,3,2,{8},{48}6b,7,8,{8},{48}7b/1bq3[4:1],62,53,{16}4,{12},7x,6x,5x,6x,7x,
{4}1b-5[8:8]*>1[4:8]/8x,,,,
{4},,,,
{4}1b-5[8:5]*>1[8:12],,,,
{4}2bq5[4:2],,,,
{16}4-2[8:1],,B6,,5-7[8:1],,B2,,1>3[8:1],,1,,B7,,8<6[8:1],,
{16},,2>4[8:1],,,,5<7[8:1],,C,,4,,3,,2,,
{16}2b,5,4,5,4,5,4,5,1b,6,5,6,5,6,5,6,
{16}2b,5,4,5,1b,6,5,{48}7/E7,B6,B5,{16}B4,{48}2/E3,B3,B4,{16}B5,8,81,,27,,
{16}B2/6,,5,4,B6,,4,5,E3,,B8,,36,,2/B7,,
{16}18,,B3/7,,5,4,B7,,1x`B1,,8x`B8,,2x`B2,,7x`B7,,
{16}B6/3,,4,5,B2,,5,4,E7,,E3,,81,,6/B3,,
{16}54,,B6/3,,4,5,B2,,8x`E8,,4x`E4,,6x`E6,,2x`E3,,
{16}7,8,7,8,6,1,6,1,5,2,5,2,4,3,4,3,
{16}1,2,1,2,8,3,8,3,7,4,7,4,6,5,6,5,
{24}8,1,8,{16}2,7,3,6,4,5,{24}2,1,2,{16}8,3,7,4,6,5,
{24}7x,8,7,8,7,,2x,1,2,1,2,,{32}2x,3,4,5,8x,1,2,3,6x,7,8,1,4x,5,6,7,
{4}8b-4[8:1]/4b-8[8:1],Cf/B8/B4,{16}23,,,67,,,{32}4bp2[8:5]`8bp6[8:5]*p6[8:5],37,26,15,
{4}4x/8x,,,,
{16}2V48[4:1]/6,,7,,8V26[4:1],,6,6V84[132#21:4],,,,,4V26[4:1],,5,,
{16}6>1[16:3],,7,7,,,,,{32}8xq4[8:1]*v5[8:1],7,6,5,4,3,2,1,{16}8b,,,,
{16}2x<7[8:1],,3,4,2,,5,,6xV84[16:3],,5,4,6,,3,,
{16}3v8[8:1],,8V24[4:1],,7v5[8:1],,6,,,,,,1,2,3,4,
{16}5/6,,8,7,1,8,2,1,3x,5,4,7x,5,6,1x,8,
{16}2/7,,1,8,2,7,3,6,2x,4,3,7x,5,6,4x,5,
{24}1x,8,1,8,1,8,2x,7,2,7,2,7,3x,6,3,6,3,6,4x,5,4,5,,,
{48}1b,2,3,{16}4,,{48}7b,6,5,{16}4,,{48}2b/8b,37,46,{16}5w1[16:1],,,Cf,,,,{24}2,3,4,
{16}5V73[4:1]/6,,3,3
,,,1,,4V26[4:1],,6,6,,,8,,
{16}8<3[16:3],,,3p1[16:5],,,1,,{32}1<5[16:3],2,3,4,5,,,,{16},,4,3,
{16}2>5[8:1],,5-1[8:1],5,2,,8,,7<4[8:1],,4-8[8:1],4,7,,2,,
{16}1,,2,4,2qq6[4:1]*qq5[4:1],7,5,7,2,,,,,,{16}2,7,
{24}1b,8,1,8,1,8,2,3,4,7,6,5,1b,8,1,8,1,8,2,3,4,7,6,5,
{24}2x,4,3,4,3,5,4x,5,4,6,5,6,1x,2,3,4,5,6,7x/2x,3,4,5,6,7,
{16}8b/1b,,3,4,2,,6,5,7h[16:3],,,3h[16:3],,,5,,
{48}1b/7,2,3,{16}4,,{48}8b/2,7,6,{16}5,,{48}5b-1[8:1]/1bs5[8:1],26,37,{16}8/4,,,Cf,,,,1,2,
{16}3/4h[4:1],,,,,,2,8,3,4,1,7,5,6,3,4,
{32}1,8,1,,{16}6,5,{32}8,1,8,,{16}2,7,4,5,{24}2,3,4,{16}8,1,{24}7,6,5,
{16}2,4,4,3,5,5,4,6,6,5,7,7,1,8,1,8,
{24}2,3,4,8,7,6,1,2,3,7,6,5,2,3,4,56,7,8,12,3,4,56,7,8,
{8}1h[4:1]/2h[8:3],,,{16}3,2,8,1,7,6,8,2,5,3,
{16}7,7,{32}1,8,1,,{16}6,6,{32}4,5,4,,{24}8,7,6,{16}3,3,{24}1,8,7,{16}4,4,
{16}5,3,6,6,1,8,2,2,7,8,6,5,1,2,4,3,
{32}2x/5b,3,4,5,6,7,8,1,2/6b,3,4,5,6,7,8,1,2/7b,3,4,5,6,7,8,1,2/7b,6,5,4,{48}8b,7,6,5,4,3,
{16}2h[16:3]/8x,8,8,8,,,7h[16:3]/1x,1,1,1,,,4x/5x,45,4-8[8:1]/5,45,
{16},,4x>5[4:2]/5xp4[4:2]/Cf,,{4},,,
{32}1x/5x,26,37,48,5x,6,7,8,1x/5x,26,37,48,5x,6,7,8,1x,2,3,4,5/8x,7,6,5,4x/3x,2,1,8,7x,6,5,4,
{24}3x,5,3,5,3,5,4,6x,4,6,4,6,2x,5,4,7x,1,6,3x,8,2,5x,4,7,
{16}1b,,{24}7,6,5,4b/3b,,,2,3,4,{2}5b>5[4:6]/8bpp5[4:6],
{1},
{4},,{16}8-4[16:1],8,8,
&inote_6=
