&title=[宴] Music
&artist=underscores
&first=0.182
&demo_seek=75.97
&des_7=undersCOREs (DDR Ver.)
&lv_7=宴
&inote_7=(152){4},{1},,,{4},,,{16}E3/D3,
D5/E5,D3/E3,D5/E5,E1/D1,D7/E7,E1/D1,E7/D7,{4}D3/E3,{16}E7/D7,D5/E5,E7/D7,D5/E5,
E1/D1,E3/D3,E1/D1,E3/D3,{4}D5/E5,{16}E3/D3,E7/D7,E3/D3,E7/D7,{4}E3/D3,
{16}D7/E7,E1/D1,E7/D7,E1/D1,D5/E5,E3/D3,D5/E5,E3/D3,{4}E7/D7,{16}D3/E3,E1/D1,D3/E3,E1/D1,
D5/E5,D7/E7,D5/E5,E7/D7,{4}E1/D1,{2}D7h[4:1]/E7h[4:1]/E3h[4:1]/D3h[4:1],
{4}D5/E5/E3h[4:1]/D3h[4:1],D7h[4:1]/E7h[4:1],{8}D5/E5,E3/D3,D5/E5,D7/E7,
E1/D1,D1/E1,D5/E5,E3/D3,E7/D7,{16}E3/D3,E1/D1,{4}D5/E5,
{16}E7/D7/D5/E5,,,D7/E7,{8}E3/D3,{16}D5/E5,E1/D1,{4}E5/D5,{8}E3/D3,D5/E5,
E7/D7,D5/E5,E3/D3,E1/D1,E5/D5,E5/D5,{16}D7/E7,E3/D3,{8}E7/D7,
{16}E1/D1,,,D1/E1,{8}E5/D5,{16}E3/D3,E7/D7,E3/D3,E1/D1,{8}E5/D5,E7/D7,E1/D1,
{4}D5h[4:1]/E5h[4:1],{8}D7/E7,D5/E5,E3/D3,E1/D1,D5/E5,E7/D7,
{4}E1/D1/D7h[4:1]/E7h[4:1],{8}E3/D3,E1/D1,E7/D7,E1/D1,E3/D3,E5/D5,
{16}E1/D1,E5/D5,E1/D1,D7/E7,{4}E3/D3,{8},,,,D5/E5/E3/D3,
D3/E3,E7/D7,{16}E3/D3,E1/D1,{4}E5/D5,{8}D7/E7,{16}E1/D1,E5/D5,
{8}E1/D1,E7/D7,E3/D3,E1/D1,{16}E3/D3,E5/D5,E1/D1,D7h[16:3]/E7h[16:3],,,E3/D3,E1/D1,
{8}E3/D3,E7/D7,E3/D3,{16}E7/D7,E5/D5,{4}E1/D1,{8}E3/D3,{16}E5/D5,E1/D1,
{8}D5/E5,E3/D3,E7/D7,E5/D5,{16}E7/D7,D1/E1,D5/E5,D1/E1,E7/D7,E3/D3,{8}E7/D7,
E3/D3,D5/E5,E5/D5/E3/D3,{16}E7/D7,E3/D3,{4}D1h[4:1]/E1h[4:1],{8}E3/D3,{16}E7/D7,E1/D1,
{8}E5/D5,E1/D1,E1/D1,E7/D7,{16}E3/D3,E1/D1,D5/E5,D7/E7,{8}E3/D3,{16}E5/D5,E1/D1,
{8}D5/E5,E1/D1,E1/D1/E7/D7,{16}E3/D3,D7/E7,{4}D5h[4:1]/E5h[4:1],{16}D7/E7,E3/D3,E7/D7,D3/E3,
{1}E7/D7,
{8}E1/D1/D7h[8:3]/E7h[8:3],,,D5h[8:3]/E5h[8:3],,,{4}D7/E7,
{8}E1/D1/E3h[8:3]/D3h[8:3],,,D5h[8:3]/E5h[8:3],,,E1/D1,E7/D7,
{16}E3/D3,D1/E1,E5/D5,E1/D1,E3/D3,D1/E1,E5/D5,E1/D1,{4}E3/D3,{16}E7/D7,E1/D1,E5/D5,E1/D1,
E7/D7,E1/D1,E5/D5,E1/D1,{8}E7/D7,E3/D3,E1/D1,D1/E1,{16}E3/D3,E7/D7,{8}E3/D3,
D5/E5/E3h[8:3]/D3h[8:3],,,E5h[8:3]/D5h[8:3],,,{4}E3/D3,
{8}D5/E5/D7h[8:3]/E7h[8:3],,,E1h[8:3]/D1h[8:3],,,{4}D5/E5,
{16}E3/D3,E7/D7,E1/D1,D7/E7,E3/D3,E7/D7,E1/D1,D7/E7,{4}E3/D3,{16}E7/D7,E3/D3,E1/D1,D3/E3,
E7/D7,E3/D3,E1/D1,D3/E3,{4}E7/D7,,,E7/D7/E3/D3,
{8}E3/D3,E1/D1,D5/E5,E7/D7,{4}D1h[4:1]/E1h[4:1],
{16}D7/E7,D3/E3,{8}E7/D7,D5/E5,E1/D1,E3/D3,D3/E3,E7/D7,D7/E7,
{4}D1h[4:1]/E1h[4:1],{8}D5/E5,E3/D3,E7/D7,D7/E7,{4}E7/D7,
{8}E3/D3,E1/D1,E5/D5,E7/D7,E1/D1,E1/D1,{16}E7/D7,E3/D3,{8}E7/D7,
{16}E3/D3,,,D3/E3,{8}E1/D1,E5/D5,D5/E5,E7/D7,{4}E3/D3,
{16}E7/D7,E1/D1,{8}E7/D7,E3/D3,D1/E1,E1/D1,E3/D3,E5/D5,E1/D1,
{16}E1/D1/E7/D7,,,D7/E7,{8}D5/E5,E1/D1,E3/D3,E7/D7,E3/D3,{16}E5/D5,E1/D1,
{8}D5/E5,E1/D1,{4}D7h[2:1]/E7h[2:1],{16},,,,,,E3/D3,E5/D5,
{8}E1/D1,E7/D7,E3/D3,{16}E7/D7,E5/D5,{4}E7/D7,{8}E3/D3,{16}E7/D7,E1/D1,
{8}D5/E5,E3/D3,D7/E7,E3/D3,{16}D7/E7,E5/D5,E1/D1,E3/D3,{8}E5/D5,{16}E1/D1,E5/D5,
E1/D1,E7/D7,{8}E3/D3,E1/D1,{16}D3/E3,E5/D5,{4}E3/D3,{8}D7/E7,{16}E3/D3,E5/D5,
{8}E1/D1,D7/E7,E3/D3,E1/D1,E5/D5,D5/E5,{16}D7/E7,E3/D3,{8}E7/D7,
E3/D3,E5/D5,D5/E5/E3/D3,{16}E3/D3,E1/D1,{4}D5/E5,{8}E7/D7,{16}E1/D1,E5/D5,
{8}E1/D1,E7/D7,E3/D3,E5/D5,{16}E3/D3,E1/D1,E5/D5,E7/D7,{8}E1/D1,{16}E5/D5,E1/D1,
E5/D5,E3/D3,{8}E7/D7,E5/D5,{16}E7/D7,E1/D1,{4}E7/D7,{16}E3/D3,E7/D7,E3/D3,E7/D7,
{8}E3/D3,E1/D1,{4}D7/E7/E3/D3,{8},,,,E3/D3/D7h[8:3]/E7h[8:3],
,,E5h[8:3]/D5h[8:3],,,{4}E1/D1,
{8}E1/D1/E3h[8:3]/D3h[8:3],,,E5h[8:3]/D5h[8:3],,,E1/D1,E7/D7,
{16}E3/D3,E7/D7,E5/D5,E7/D7,E1/D1,E7/D7,E5/D5,D7/E7,{4}E3/D3,{16}E7/D7,E3/D3,E5/D5,E3/D3,
E1/D1,E3/D3,E5/D5,D3/E3,{4}E7/D7,{8}D3/E3,E1/D1,{16}E3/D3,E7/D7,{8}E3/D3,
D7/E7/E3h[8:3]/D3h[8:3],,,E1h[8:3]/D1h[8:3],,,{4}E5/D5,
{8}E5/D5/E7h[8:3]/D7h[8:3],,,E1h[8:3]/D1h[8:3],,,E5/D5,E3/D3,
{16}E7/D7,E5/D5,E1/D1,E5/D5,E7/D7,E3/D3,E7/D7,E3/D3,{4}E5/D5,{16}E3/D3,E5/D5,E1/D1,E5/D5,
E3/D3,E7/D7,E3/D3,E7/D7,{4}D1/E1,{8}E7/D7,E3/D3,{16}E1/D1,E5/D5,{8}E1/D1,
,,E7/D7/E3/D3,E3/D3,E5/D5,E1/D1,D7/E7,E3/D3,
E3/D3/E1h[8:1]/D1h[8:1],E3/D3,E5/D5,E3/D3/D5h[8:1]/E5h[8:1],E1/D1,E7/D7,E5/D5,E1/D1,
{16}D3/E3,E5/D5,E1/D1,E7/D7,E3/D3,E1/D1,E3/D3,E1/D1,{4}E3/D3,{16}E7/D7,D1/E1,E5/D5,E3/D3,
E7/D7,E5/D5,E7/D7,E5/D5,{4}E7/D7,{8}E3/D3,E7/D7,{16}E1/D1,E5/D5,{8}E1/D1,
D7/E7/E1h[8:1]/D1h[8:1],E7/D7,E5/D5,E5/D5/D7h[8:1]/E7h[8:1],E1/D1,E5/D5,E3/D3,E1/D1,
E3/D3/D1h[8:1]/E1h[8:1],D3/E3,E5/D5,E3/D3/D5h[8:1]/E5h[8:1],E1/D1,{16}D7/E7,E5/D5,{8}D1/E1,E3/D3,
{16}E7/D7,E1/D1,E5/D5,E3/D3,E7/D7,E5/D5,E1/D1,E3/D3,{4}E7/D7,D7/E7/E3/D3,
{8},,,,,,,,E7h[8:3]/D7h[8:3],
,,E5h[8:3]/D5h[8:3],,,{4}E1h[8:3]/D1h[8:3],
{8},E3h[8:3]/D3h[8:3],,,{4}D7h[4:1]/E7h[4:1],{8}E1/D1,E5/D5,
E3h[8:3]/D3h[8:3],,,E1h[8:3]/D1h[8:3],,,{4}E5h[8:3]/D5h[8:3],
{8},D7h[8:3]/E7h[8:3],,,{4}D1h[4:1]/E1h[4:1],{8}D5/E5,E3/D3,
{16}D7/E7,,,E7/D7,,,{8}E5/D5,{16},E5/D5,,,E1/D1,,,D1/E1,
,,{8}E3/D3,{16},D3/E3,,,E7/D7,,,E3/D3,,,E5/D5,E1/D1,
E5/D5,,,E5/D5,,,{8}E3/D3,{16},D3/E3,,,E1/D1,,,D1/E1,
,,{8}E5/D5,{16},D5/E5,,,E7/D7,,,E3/D3,,,E7/D7,E5/D5,
{4}E7/D7,D7/E7/D5/E5,{8}E3h[4:1]/D3h[4:1],E5/D5,{4}E7/D7,
{8}D7h[4:1]/E7h[4:1],E1/D1,E3h[2:1]/D3h[2:1],E1/D1,{2}D7h[4:1]/E7h[4:1],
{16}E3/D3,,,E7/D7,,,{8}E1/D1,{16},D1/E1,,,E5/D5,,,E3/D3,
,,{8}E1/D1,{16},E5/D5,,,E7/D7,,,D7/E7,,,E3/D3,E1/D1,
{4}E3/D3,E1/D1/E3/D3,{8}D7h[4:1]/E7h[4:1],E1/D1,{4}E3/D3,
{8}E3h[4:1]/D3h[4:1],D5/E5,E7h[2:1]/D7h[2:1],E5/D5,{2}E3h[4:1]/D3h[4:1],
{16}E7/D7,,,E3/D3,,,{8}E5/D5,{16},E5/D5,,,E1/D1,,,E7/D7,
,,{8}E5/D5,{16},E1/D1,,,{8}E3/D3,E7/D7,E3/D3,E7/D7,
{4}E7/D7/E1/D1,E5/D5/E3/D3,{8}E7/D7,E5/D5,E3/D3,E5/D5,
{4}D7h[4:1]/E7h[4:1],{8}E1/D1,E5/D5,{4}E3h[4:1]/D3h[4:1],E7/D7,
E1/D1/E3/D3,E5/D5/E7/D7,{8}E3/D3,E7/D7,{4}E1h[4:1]/D1h[4:1],
{8}E7/D7,E5/D5,E3/D3,E5/D5,E7/D7,E1/D1,E5/D5,E3/D3,
{4}D1h[2:1]/E1h[2:1],E7/D7,{8}E3/D3,E7/D7,E3/D3,E7/D7,
{4}D1h[4:1]/E1h[4:1],{8}E5/D5,E3/D3,{4}D7h[4:1]/E7h[4:1],E5/D5,
E7/D7/D5h[2:1]/E5h[2:1],E3/D3,{8}E7/D7,E3/D3,E7/D7,E3/D3,
E5/D5,E7/D7,E5/D5,E3/D3,E1/D1,E5/D5,E7/D7,{16}E1/D1,E5/D5,
{8}E1/D1,E7/D7,E3/D3,E7/D7,E5/D5,E7/D7,E1/D1,E7/D7,
E3/D3,E1/D1,E5/D5,E7/D7,E1/D1,E5/D5,E3/D3,{16}E7/D7,E3/D3,
{8}E7/D7,E3/D3,E1/D1,E3/D3,E5/D5,E3/D3,E7/D7,E3/D3,
E5/D5,E1/D1,E5/D5,E1/D1,E7/D7,E5/D5,E1/D1,{16}E3/D3,E7/D7,
{8}E3/D3,{16}E7/D7,D5/E5,,E7/D7,{8}E5/D5,{16}E1/D1,E3/D3,,E1/D1,{8}E3/D3,{16}E7/D7,E1/D1,
,E7/D7,{8}E1/D1,{16}E5/D5,E3/D3,,E5/D5,{8}E3/D3,{16}E7/D7,E5/D5,,E1/D1,{8}E3/D3,
{16}E7/D7,E1/D1,{8}E7/D7,{16}E3/D3,E1/D1,{8}E3/D3,{16}E7/D7,E5/D5,{8}E7/D7,{16}E3/D3,E5/D5,{8}E3/D3,
{16}E7/D7,D5/E5,E1/D1,E3/D3,E5/D5,E1/D1,D7/E7,E3/D3,{2}E7/D7,
{16}E3/D3,E5/D5,{8}E3/D3,{16}E7/D7,D5/E5,E1/D1,E3/D3,{8}E5/D5,E1h[8:1]/D1h[8:1],{16}D7/E7,E5/D5,E7/D7,E5/D5,
E1/D1,E3/D3,E1/D1,E3/D3,{8}E7/D7,E1h[8:1]/D1h[8:1],{16}E5/D5,E3/D3,E7/D7,E3/D3,{8}E7/D7,E1/D1,
E7/D7,E5/D5,{16}E7/D7,E1/D1,E7/D7,E3/D3,{8}E5/D5,E3/D3,{16}E1/D1,E3/D3,E1/D1,E5/D5,
E7/D7,E3/D3,E7/D7,E3/D3,{8}E5/D5,E1/D1,{16}E5/D5,E1/D1,{8}E5/D5,{16}E3/D3,E7/D7,{8}E3/D3,
{16}E7/D7,E1/D1,{8}E7/D7,{16}E3/D3,E1/D1,E5/D5,E7/D7,{8}E1/D1,D5h[8:1]/E5h[8:1],{16}E3/D3,E1/D1,E3/D3,E1/D1,
E5/D5,E7/D7,E5/D5,E7/D7,{8}E3/D3,D5h[8:1]/E5h[8:1],{16}E1/D1,E7/D7,E3/D3,E7/D7,{8}E3/D3,E5/D5,
E3/D3,E1/D1,{16}E3/D3,E5/D5,E3/D3,E7/D7,{8}E1/D1,E7/D7,{16}E5/D5,E7/D7,E5/D5,D1/E1,
E3/D3,E7/D7,E3/D3,E7/D7,{8}E1/D1,E5/D5,{16}E1/D1,E5/D5,{8}E1/D1,{16}E7/D7,E3/D3,{8}E7/D7,
,,D7/E7/E3/D3,E7/D7,E1/D1,{16}E5/D5,E1/D1,{8}E5/D5,E3/D3,
E1/D1,{16}E3/D3,E7/D7,{8}E3/D3,E7/D7,E5/D5,{16}E7/D7,E1/D1,{8}E7/D7,E3/D3,
D7h[4:1]/E7h[4:1],E5/D5,E3h[4:1]/D3h[4:1],E5/D5,{16}E7/D7,E5/D5,E7/D7,E5/D5,{8}E1/D1,E3/D3,
{16}E7/D7,E1/D1,E5/D5,E3/D3,{8}E7/D7,E1/D1,E5/D5,E3/D3,{16}E7/D7,E3/D3,{8}E7/D7,
E3/D3,E1/D1,E5/D5,E7/D7,{16}E3/D3,E5/D5,E1/D1,E7/D7,{8}E3/D3,E7/D7,
{16}E3/D3,E1/D1,E5/D5,E7/D7,{8}E1/D1,E5/D5,E3/D3,E7/D7,E5/D5,E7/D7,
E3h[4:1]/D3h[4:1],E1/D1,E7h[4:1]/D7h[4:1],E1/D1,{16}E3/D3,E5/D5,E1/D1,E7/D7,{8}E5/D5,E1/D1,
{16}E3/D3,E7/D7,E1/D1,E5/D5,E3/D3,E1/D1,E5/D5,E7/D7,{8}E3/D3,E7/D7,{16}E5/D5,E1/D1,{8}E5/D5,
D7h[4:3]/E7h[4:3],,,D5h[8:3]/E5h[8:3],,,,,D3h[4:3]/E3h[4:3],
,,D5h[8:3]/E5h[8:3],,,,,E7/D7,
E1/D1,E5/D5,E3/D3,{2}E1/D1,
{8},E3/D3,E7/D7,E3/D3,E7/D7,E1/D1,{4}E5/D5,
{8}D3h[4:3]/E3h[4:3],,,D1h[8:3]/E1h[8:3],,,,,D7h[4:3]/E7h[4:3],
,,D1h[8:3]/E1h[8:3],,,,,E3/D3,
E5/D5,E1/D1,E7/D7,{2}E5h[2:17]/D5h[2:17],
,,,,,,,,,,,,,,,,,4bx/5bx,
{1},,,,E
