&title=World's End Valentine
&artist=OMOCAT, LLC.
&first=0.04
&des=LTCalter
&clock_count=4
&lv_5=14
&inote_5=(75)
{2},,
{16}5,6,3,4,7h[8:1],,5h[8:1],,3^6[16:3],,,,2,,,,
4,3,6,5,2h[8:1],,4h[8:1],,6V41[16:3],,,,7,,6,,
4,2,7,5,3h[8:1],,4h[8:1],,5p3[16:4],,,,6h[8:1],,,,
7h[16:3],,,5,5h[8:1],,4h[8:1],,2b,,,,,,,,
3h[8:2],,,,4h[8:2],,,,5xh[8:2],,,,6bxh[8:2],,,,
(37.5)8b-4b[32:1],,,,
(162)
{8}8bx/A1/D2/A2f/D3/E2/E1/B1/B2/E3/B3/D1/A3/D4/E4,,,,,,,6,
6h[8:7]/5,,,,,,,,
7h[8:2]/E5,,,,7h[8:2]/E6,,,,7h[8:2]/E1,,,,7h[8:2]/E2,,,,
3/5h[8:2],,1,,6/5h[8:2],,8,,43,2,75,8,{16}2,1,3,8,2,1,4,7,
1bqq4b[8:8],,,,,,,,,,,,,,,,
5,,,,6,,,,7^2[8:1]*-4[8:1],,,,7x,,,,
3,4,2,5,1,4,3h[8:1],,7,4,6,5,7,4,6h[8:1],,
1,5,3,4,2,5,1h[8:1],,7,4,6,5,7,4,6h[8:1],,
2,4,1,5,8,4,2h[8:1],,8,4,6,5,7,4,6h[8:1],,
1,5,2,5,1,6,3,6,2v5[8:1]*^7[8:1],8,4,,2b,,,,
6,5,7,4,8,5,6h[8:1],,2,5,3,4,2,5,3h[8:1],,
6,1,7,8,6,1,7h[8:1],,3,8,2,1,3,8,2h[8:1],,
1-6[8:1],,2,,3,,4,,5^8[8:1],,4,,3,,2,,
E1,,A7/B7,,E3,,E6/D6,,4x,,5x,,2/7h[8:2],,,,
1b,,2v5[8:1],4,3,4,2,,7,,8-4[8:1],5,6,5,8,,
2,,3,4,1,5,3,4,2-5[8:1],7,5-2[8:1],,,,,,
8b,,7-4[8:1],5,6,5,7,,2,,1-5[8:1],4,3,4,1,,
7,,6,5,8,4,6,5,7-3-7b[8:2],1,8,,,,,,
1b>5[8:1]*-6[8:1],,,,1,,,,2b^5[8:1]/6-1[8:1],,,,2,,,,
3b^6b[8:1],,,,3b/7b-1[8:1]*-3[8:1],,,,7bV51b[16:3],,,,4b,,,,
2,8,2,8,1,7,1,7,5,6,4,7,5,6,{24}1x,8x,1x,
{24}8bx^5[8:1],,,,,,8/3^8b[8:1],,,,,,{32}E5,E6,E7,E8,E1,E2,E3,E4,Cf/E5,,,,,,,,
{16}81,,82,,3,3,5,5,6h[8:1]/4,,2,2h[8:1]/1,,7,7,8,
6,5,6,4,6,3,6,2,1h[8:1]/7,,5,6h[8:1]/4,,2,2,1,
3h[8:1],,4h[8:1],,5h[8:1],,6,,4,8,4,7,65,,65,,
2,4,2,5,1,6,3,7,4,4,8bh[8:1],,6b,,1b/8b,,
7,7,5h[8:1],,6,4,5,3h[8:1],,5,3,4,2x,8,1,7,
5,5,7,7,3,3,5,5,2x,,3x/4x,,8x,,6x/5x,,
2,2,4h[8:1],,3,5,4,6h[8:1],,4,6,5,7b,1,8,2,
5,5,4,4,7,7,1,1,4,4,6,6,8,8,2,2,
{24}4x,3x,5x,{16}1x,6,5,7,4,8,
3,4,2,5,1h[8:1],,8,,
17,,6,57,,3,24,,{32}1bx/5,8,7,6,5,4,3,2,1bxqq5<4b[8:14]/6,8,7,6,5,4,3,2,
{16}7bx/A1/D1/D2/E1/E2/B1f,,,,,,,,,,,,,,,,
,,,,,,,,6xh[8:2],,,,,,,,
7h[8:4],,,,E1/B1,,,,3h[8:4],,,,E5/B5,,,,
6h[8:4],,,,E7/B7,,,,E1/B1,,,,B3/E3/7x^2qq6b[8:12],,,,
E5,,,,E5,,,,E5,,,,E5,,,,E4,,,,E3,,,,1xh[8:2],,,,,,,,
2bh[8:2]/4bh[8:2],,,,,,,,6bh[8:2]/5bh[8:2],,,,,,,,
3bh[8:2],,,,1bh[8:2],,,,5,,6,,7-4[8:1],,,,
6bx,,,,6,,,,6,,,,6,,,,
6/5,,,,6,,,,6,,,,6,,,,
6/1^2^3^4^5b[8:4],,,,6,,,,6,,,,6,,,,
65,,,,6,,5,5,7x,6x,7x,6x,7x,,8,,
2b-5[8:1],,,,2qq1[16:3],,,,5,,6,,7x^4[8:1],,,,
3,,2,,1,,{24}E2,E3,E4,{16}E5,,,6,5h[8:1],,7,,
4,,5,,2V83[8:2],,,8,8,,7,,6,,5,,
3,4,2,4,3h[8:1],,1,,82,,7,,16,,2,,
5b,,4,,7,,4,5,2h[8:1],,4h[8:1],,5h[8:1],,6pp2[16:6],,
,,2,,3,,4,,5qq5b[8:2]*pp5b[8:2],,,,,,,,
,,8,,1,,8,1,6h[8:1],,5h[8:1],,4h[8:1],,3V14-8b[8:3],,
,,8,,7,,6,,5w1b[8:1],,,,5b,,,,
2,3,4,5,8,7,6,5,1,2,6,5,2,3,6,5,
3,4,5,6,1,8,7,6,2,3,7,6,1,2,6,5,
8,1,2,3,8,7,6,5,3,4,8,7,2,3,7,6,
2,3,4,5,2,3,4,5,{24}1,2,3,4,5,6,1-3-8-4-7-5b[8:10],2,3,4,5,6,
{16}A8/D1/D8/E1/E8/B8f/A1,,,,,,,,,,,,,,,,,,,,,,,,6,,,,6,,,,
6h[8:1]/5,,,,6h[8:1],,,,6h[8:1]/8,,,,6h[8:1],,,,
6h[8:1]/2,,,,6h[8:1]/3,,,,6h[8:1]/4-8b[8:1],,,,6h[8:1],,,,
6h[8:1]/1-5[8:1],,,,6h[8:1],,,,6h[8:1]/4-2[8:1],,,,6h[8:1],,,,
6h[8:1]/1x-3[8:1],,,,6h[8:1]/1x-5[8:1],,,,6h[8:1]/1x^4b[8:1],,,,6h[8:1],,,,
6h[8:1]/5-1[8:1],,,,6h[8:1],,,,6h[8:1]/2-4[8:1],,,,6h[8:1],,,,
7h[8:1],,5h[8:1],,4h[8:1],,2,,18,,18,,1,8,1,8,
2b^5[8:1],,8-4[8:1],,2,,8,,1-5[8:1],,7-4[8:1],,1,,7,,
3v6[8:1],,6^3b[8:1],,3,,7,,8h[8:1],,,2h[8:1]/1h[8:1],,,2x/6x,,
6-1[8:1],,2v5[8:1],,6,,2,,8-4[8:1],,3-8[8:1],,8,,3,,
6p1[8:1],,1^6b[8:1],,6,,2,,3h[8:1],,,6h[8:1]/5h[8:1],,,1x/7x,,
2b-5b[8:1],,3,,8-6[8:1],,7,,2-8b[8:1],,1,,5-3[8:1],,4,,
8-4b[8:1],,7,,2-6[8:1],,3,,8h[8:1],,,7h[8:1]/5h[8:1],,,6x/2x,,
7^4b[8:1],,6,,7-3[8:1],,8,,1v6b[8:1],,2,,1^4[8:1],,8,,
7V51b[16:3],,6,,3V15[16:3],,2,,8w4b[8:1],,7,,8b,,,,
6bx-8[8:1]/4bx,,7,,6/5-1b[8:1],,4,,3-8b[8:1]/5,,2,,3/4-7[8:1],,5,,
1b-3b[8:1],,8-4[8:1],,1-5b[8:1],,8-6[8:1],,1,,8,,{32}1x,2x,3x,4x,8x,7x,6x,5x,
{16}2b,8,5,6,3b,7,1,4,2b,6,3b,7,{32}4b,5,6,7,8,1,2,3,
{8}6bqq3b[8:5]/4,,,,,,,,82,8,84,8,6-2b[8:1]/8z4b[16:3],,6b/8b,,
D8/B8/B1/D2/A7/A2/E7/B6/B5/E3/B3/B4/E5/Cf,
