&title=3HP MISSIONS
&artist=cybermiso
&first=0
&des=WuWai
&lv_5=14
&inote_5=(110){1},
{16}8h[4:1],,,,3,1-5[8:1]/2,8/1h[16:3],6h[8:1],,,6,6,,,2,7,
{16}1>4[16:1]/8<5[16:1],,,,1v3[16:1]/8v6[16:1],,,,1>4[16:1]/8<5[16:1],,,,18,,,,
{16}1h[4:1],,,,6,8-4[8:1]/7,1/8h[16:3],3h[8:1],,,3,3,,,7,2,
{16}1-3[16:1]/8-3[16:1],,,,1-6[16:1]/8-6[16:1],,,,1-5[16:1]/8-4[16:1],,,,18,,,,
{16}4-8[16:1],,,,4/2,3,4/5-1[16:1],4,,6,75,8h[16:1],,3,7,2,
{16}1>3[16:1]/8v2[16:1],,,,1v7[16:1]/8<6[16:1],,,,1v4[16:1]/8v5[16:1],,,,18,,,,
{16}5-1[16:1],,,,7/5,6,5/4-8[16:1],5,,3,24,1h[16:1],,6,2,7,
{16}1h[4:1]/8h[2:1],,,,{48},2,3,4h[48:21],,{6},{48}7,6,5h[48:9],,{6},{48}36,27,1/8,{6},
{16}1-5[16:1]/4-8[16:1],,,,14,,,,7-4[16:1]/2,8,8,,27,,,,
{16}5-1[16:1]/8-4[16:1],,,,58,,,,2-5[16:1]/7,1,1,,27,,,,
{16}8<4[16:1],,,,8-4[16:1],,,7,8<4[16:1],,6,,8,,,,
{16}1>5[16:1],,,,1-5[16:1],,,,1,,,3h[16:3],,,4,,
{16}2h[16:3],,4,4,,36,,7,5,6,1-5[16:1],,2,2,18,,
{16}7h[16:3],,5,5,,36,,2,4,3,8-4[16:1],1,7,7,18,,
{16}1b<1[2:1]*>3[16:1],,,,,,,,1b<1[2:1]*>3[16:1],,,,,,,,
{16}1b<1[8:5]*>3[16:1],,,,,,,,,,,,,,,,
{16}2b/7b,,,,13,2,2>5[16:1],68,7,7,2<7[16:1],6,6,,2,,
{16}6h[8:1],,3,,2,1,3,4,1,8h[8:1],,4h[16:3],,,5,,
{16}2b/7b,,,,68,7,7<4[16:1],13,2,2,7>2[16:1],3,3,,7,,
{16}3h[8:1],,6,,7,8,6,5,8,1,5,4,1w5[16:1],,28,,
{16}1b,,,,2-5[16:1]/7,8,1,8,2/7-4[16:1],1,8,1,2h[8:1]/7,,,,
{16}45,,,,2<7[16:1],4,3,,27,6,5<8[16:1],3,4,,5,,
{32}2,3,4/7h[16:3],,,,4,3,2,,,,,,,,7,6,5/2h[16:3],,,,5,6,7,,1b,,1b,,1b,,
{32}18,,,,15,,26,,3,4,5,6,7-3[16:1],8,1-5[16:1],2,3b,,,,7b,,1b,,,,,,,,,,
{16}1h[16:3],,4,4,,6,1-3[16:1],1,7-4[16:1],,1-5[16:1],,7<2[8:1],,1,,
{16}7,,,,1,8,2-4[16:1],1-5[16:1],2,,2b-6[16:1],1b,2,,2b,,
{16}8h[16:3],,5,5,,3,8-6[16:1],8,2-5[16:1],,8-4[16:1],,2>7[8:1],,8,,
{16}2,,,,2h[16:1],1,3h[16:1],4,2p5[8:1],,5>3[16:1]/1,,2,,,,
{16}28,,1,7<5[16:1],,18,,7,,2-6[16:1],6,1,5,2,8,8,
{16}17,,2,7h[8:1],,8,,1-5[16:1],5>2[16:1],2>5[16:1],6,1,8,8,8h[8:1],,
{16}1b,,,,5b,,,,26,26,37,37,{32}4/8-4[16:1],37,26,15,8,7,6,5,
{16}4b>4[8:5]/8b<8[8:5],,,,,,,,,,,,,,,,
{16}25,,7/8-5[16:1],7-2[2:1]/8,,1,8,,6pp4[1:1],,,,,,,,
{16},,,,,,,,,,,,,,,,
{16}47,,1-4[16:1]/2,1/2-7[2:1],,8,1,,3qq5[1:1],,,,,,,,
{16},,,,,,,,,,,,,,,,
{16}45,,2-7[16:1],8,,8,2qq7[1:1],,6qq3[8:7],,,,,,,,
{16},,,,,,,,,,,,,,,,
{16}45,,7-2[16:1],1,,2,7pp2[1:1],,3pp6[8:7],,,,3,,,,
{16},,,,,,,,,,,,,,,,
{16}7h[16:3],,2,3h[16:3],,7,6,,1-3[16:1]/8>8[16:9],,,,1,,,,
{16}1-4[16:1],,,,1,,,,,,{32}84,7,6,5,84,,{16},,,
{16}2h[8:1],,7,81,,3,2-6[8:1],,1-7[8:1]/6-3[8:1],,2,,1,,,,
{16}3h[4:1],,,,6,,4v7[16:1]/5,,,,2/4,,8,,,,
{16}6,,3,7,,8h[16:3],1,,2,,,,3>8[16:1]/7,,,,
{16}3<6[16:1]/7,,,,3>8[16:1]/7,,,,3<6[16:1]/7,,,,37,,,,
{16}4h[8:1],,6h[8:1],,2h[8:1],,8,,24,3,57,6,31,2,68,7,
{32}8b/4b,7,6,5,4,3,2,1,8,7,6,5,48,1,2,3,{16}4b-8[16:1]/8b,,,,4bw8[16:1],,5,3,
{16}4b,,,,,8-4[16:1],1-3[16:1],7-5[16:1],,8b,1b-5[16:1],7b,1,,1b,,
{16}6,2>5[16:1]/7,8,1,,2,6,6,1>5[16:1],8h[16:3],,,1<5[16:1],,4,3,
{16}1b/2,,,,8q4[16:1]*p4[16:1],1,7,,8bv6[16:1]*v2[16:1],,,,8b,,,,
{16}2-4[16:1]/7,1,8,8,2-5[16:1]/7,1,8,8,2w6[16:1]/7,1,8,8,2b,,,,
{16}8b,,,,1-3[16:1],8-4[16:1],5,6,1-5[16:1],8,2,7,1w5[16:1],,8,,
{16}1b,,,,34,1,45,,8-4[16:1],1,6,5,8,,3,,
{16}8,1v4[16:1]/2v4[16:1],4>2[16:1],4,,12,,,1,8v5[16:1]/7v5[16:1],5<7[16:1],5,,87,,,
{16}1,5,2,6,{32}3,4,5,6,7-5[16:1],8,1-5[16:1],2,{16}3b,,7b,1b,,,,,
{16}8h[8:1],,4,26,,7,8-6[16:1],1,{32}2-5[16:1],1,2,,8V64[16:3],,{16},2-6[16:1],,8,,
{16}2,,6,5,47,3,4,52,{32}7,8,7,,3,4,3,,{16}25,61,78,,
{16}1h[8:1],,5,37,,1,8-4[16:1],2,2,{32}8,1,8,,2,,{16}7-3[16:1],,3,,
{16}7,,2,13,,7,68,51,4<7[8:1]/2<7[8:1],,3,,24,,,,
{16}7,,54,5-1[16:1],,2>4[16:1],,5,,2>5[16:1],7>1[16:1],6,1,2,7,2,
{16}2,,45,4-8[16:1],,7<5[16:1],,4,,7<4[16:1],2<8[16:1],3,8,7,2,,
{16}5b/1h[16:8],,,,,,,,4h[16:1],8h[16:1],3h[16:1],7,{32}3b/7b,48,51,26,37,48,51,26,
{16}3b>3[4:3]/7b<7[4:3],,,,,,,,,,,,,,,,,,,,,,,,,,,,,,,,E
