&title=RE:START
&artist=結月ゆかり and Ark-Z
&first=0
&des=Premium;Millennium
&lv_5=13+
&inote_5=(145){4},,,,{1}1q4[2:1]
,
8p5[2:1],
{2}7V15[2:1],3h[4:1],
2V84[2:1],6h[4:1],
{4}7V53[2:1],5-3[4:1],3-7[4:1],1,
2V46[2:1],4-6[4:1],6-2[4:1],8,
7-3[4:1],3,1V75[4:1],5,
{1}4pp4[2:1]*qq4[2:1],
{8}4/5,{16}4,2,,2,{8}4,{16}5,7,,7,{8}5,4/5,
3/6,{16}3,1,,1,{8}3,{16}1V37[4:1],3,{8}1,,,4,
{16}4,6,,6,{8}4,{16}5,3,,3,5,4,5,4,
{8}5,{16}5,7,,7,{8}5,{16}7V51[4:1],5,{8}7,,,4,
{16}4,3,,3,{8}2,{16}2,1,,1,8,7,6,5,
{8}4/3,{16}5,6,,6,{8}7,{16}7,8,,8,1,2,3,4,
{8}5/6,{16}6,4h[16:1],,6,{8}3h[16:1],{16}6,2h[16:1],,6,{8}1h[16:1],{16}6,5,
{1}4bpp4[2:1]*qq4[2:1],
{8}6,4,6/3,2,{4}6/1>4[4:1],6,
{8}7,4,3/7,2,{4}7/1>4[4:1],7,
{8}8,4,8/3,2,{4}8/1h[4:1],8,
7/1p8[2:1],6,5,4,
{8}1,5,1/6,7,{4}1/8<5[4:1],1,
{8}2,5,2/6,7,{4}2/8<5[4:1],2,
2-8[8:1],5/2-4[8:1],7/2-6[8:1],2/6,
{1}5bpp5[2:1]*qq5[2:1],
{8}5/4,3h[8:1],2h[8:1],1h[8:1],8<6[8:1],7,{16}1/8,2,{8}3,
4/5,6h[8:1],7h[8:1],8h[8:1],1>3[8:1],2,{16}8/1,7,{8}6,
5/4,2h[8:1],7h[8:1],3h[8:1],8<6[8:1],7,{16}8/3,2,{8}1,
1/8,6h[8:1],3h[8:1],7h[8:1],4>2[8:1],3,{16}4/7,6,{8}5,
5h[8:1],1h[8:1],6h[8:1],2h[8:1],7h[8:1],3h[8:1],{16}6,5,{8}4,
3h[8:1],7h[8:1],4h[8:1],8h[8:1],5h[8:1],1h[8:1],{16}4,3,2,1,
{4}8-5[8:1]*-3[8:1],8,{8}2-4[8:1],4-6[8:1],{4}2/6,
{16}8z4[2:1],8,,6,{8}6,{16}4,4,,2-6[16:1],{8}2,{16},,,,5qq2[8:5],
,,6,,,{8}7,{4}8-5[8:1],8,
{16}4pp7[8:5],,,3,,,{8}2,{4}1-4[8:1],1,
5-2[8:1]/8-5[8:1],5/8,{8}2q6[8:1],6<2[8:1],{4}2,
{16}6,5,4,3,6,5,4,3,6,5,4,3,6,5,4,3,
{8}6/2,5,3/7,4,1/2,3,7/8,6,
6/5,6,4/3,3,7/5,6,4/2,3,
{16}2,5,1,6,8,7,8,7,1,6,3,8,2,1,2,1,
{32}2/8,3,{16}4,{32},,7/1,6,{8}5,8,{32}8p4[8:1]*q4[8:1],7/1,{16}6/2,,,{4}8b,
5/1-3[8:1],{16}6/1-5[8:1],7,{8}8h[8:1],{4}1-3[8:1],{16}8/1-5[8:1],7,{8}6h[8:1],
{4}1-3[8:1],{16}6/1-5[8:1],7,{8}8h[8:1],{4}1,{16}8/4,7/3,6/2,1/5,
{4}8/4-6[8:1],{16}1/4-8[8:1],2,{8}3h[8:1],{4}4-2[8:1],{16}5/4-8[8:1],6,{8}7h[8:1],
{4}4-6[8:1],{16}1/4-8[8:1],2,{8}3h[8:1],{4}4,{16}3,2,8,7,
6V84[4:1],,,4,{8}4,3,{16}2V84[4:1],,,4,{8}4,5,
6-2[8:1],2-6[8:1],{4}6<4[4:1],{2}2h[4:1],
{4}4-1[8:1]*-7[8:1],4,{8}2-4[8:1],4-6[8:1],{4}2/6,
{16}8z4[2:1],8,,6,{8}6,{16}4,4,,2-6[16:1],{8}2,{16},,,,7<5[8:1],
8,{8}1,{16}7/4,3,{8}2h[8:1],{16}7<5[8:1],8,{8}1,{16}7/2,3,{8}4h[8:1],
{16}7<5[8:1],8,{8}1,{16}7/4,3,{8}2h[8:1],{16}7<5[8:1],8,{8}1,{16}7/2,3,{8}4,
{16}2>4[8:1],1,{8}8,{16}2/5,6,{8}7h[8:1],{16}2>4[8:1],1,{8}8,{16}2/7,6,{8}5h[8:1],
{16}2>4[8:1],1,{8}8,{16}2/5,6,{8}7h[8:1],{16}2>4[8:1],1,{8}8,{16}2/7,6,{8}5,
7b-3[8:1],7,8-4[8:1],8,1-5[8:1],1,2-6[8:1],2,
{4}2b<7[8:1]*>5[8:1],2w6[8:1],2,{8}4,2,
{16}8,7,8,7,{32}1,2,3,8,7,6,,,{16}2,1,2,1,{32}8,7,6,1,2,3,,,{1}5pp5[2:1]*qq5[2:1],
{4}3/6,{8}2,2,,,1,1,
{4}8,{8}7,7,,,6,6,
{4}7/8,1/2,3/4,5/6,
{16}6,5,4,3,6,5,4,3,6,5,4,3,6,5,4,3,
{8}2/7,7,7/3,7,7/4,7,7/5,7,
5/6,5/4,3/4,5/4,8/7,5/4,2/1,4/5,
{16}3,4,2,5,1,6,1,7,2,8,3,7,4,6,{8}5,
{32}6,7,{16}8,{32},,3,2,{8}1,{32}8/1V75[4:1],7/2,{16}6/3,,,,,4,3,2,1,
8,7,8,7,4,5,4,5,2,1,4,5,8,7,4,5,
2,1,3,4,8,7,5,6,1,4,3,4,8,6,5,6,
4,1,2,1,5,7,8,7,5,6,4,5,3,4,1,8,
2,3,4,5,7,6,5,4,{12}2,4,3,7,5,6,
{16}5/4,5/4,,5/6,,1/2,,4/3,,,{8}7/8,{16}8/1,7/2,{8}3/6,
{16}4/5,4/5,,3/4,,8/7,,5/6,,,{8}2/1,{16}1/8,2/7,{8}6/3,
{16}4/5,4/5,,7/8,,4/3,,6/5,,,{8}2/1,{16}1,8`2,7`3,6`4,
{1}5bpp5[2:1]*qq5[2:1],
{4}5/4-6[8:1],{16}3/4-8[8:1],2,{8}1h[8:1],{4}4-2[8:1],{16}4/5-1[8:1],6,{8}7h[8:1],
{4}5-7[8:1],{16}5/4-8[8:1],3,{8}2h[8:1],{4}4-2[8:1],{16}5/4,6,7,8,
{4}1-7[8:1],{16}2/1-5[8:1],3,{8}4h[8:1],{4}1-3[8:1],{16}1/8-4[8:1],7,{8}6h[8:1],
{4}8-6[8:1],{16}8/1-5[8:1],2,{8}3h[8:1],{4}1-3[8:1],{16}8/1,7,6,5,
{8}4,4/3,5,5/6,4,3/1,5,6/8,
4/2,4/3,5/7,6/5,4/3,3/1,5/6,6/8,
{16}7,8,7,8,{32}7b,6,{16}5,{8}1,{16}2,1,2,1,{32}2b,3,{16}4,{8}8,
{1}4bpp4[2:1]*qq4[2:1],
8b,
E
