&title=No way
&artist=影虎。
&first=0.01
&des=Donut×H
&clock_count=4
&lv_5=14
&inote_5=(160)
{1},,
{4}4z8[2:1]/5h[2:3],,,,
1,2,3-7[8:1],,
{8}6h[4:1]/1b,,1,,1,,1,2/5b,
2h[4:1]/5b,,,{24}3,4,3,{16}5,,,6b,,,4/7b,,
{8}4/7b,,7,,7,,7,16,
{16}16,,,38,,,25,,,47,,,{8}36,27,
18,2,57,6,25,3,48,6,
{16}4,5,4,5,4,5,4,5,3,6,3,6,3<3[2:1],6,3,6,
{4}3bq6[2:1],,,,
{8}7b-4[8:1]/3b-8[8:1],,,,1v4[8:1]/7v4[8:1],26,,,
3h[8:1]/5b,,{16}3-1[12:1],4,3-7[8:1],4,{8},,1h[8:1],,
7/4h[8:1],{16}6,5,6,5,6,,4/7b,,,2b/5,,,27,,
1b-5[8:1]/8b,,,,1,,,,1-4[8:1]*-6[8:1],,2,8,1,,,,
5h[4:1],,,,4p6[16:3],5,3,6<4[32:7],{4},,
{16}7h[8:1]/5,,,,{12}4,6,3,{16}5,,3,5,,4,,5,
4-1[8:1],,3,,6p3[4:1]/4,,5,,6,,,,1b,,
,,
{32}2,3,4h[8:1],,,,8,7,6h[8:1],,,,2,,,,{32}7,6,5h[8:1],,,,1,2,3h[8:1],,,,7,,,,
1,2,3,,,,7,6,5,,,,2,3,4,,,,8v3[12:1]*v5[12:1],7,6,,,,{8}8b,,
2-8[12:1]/6,7,2,6,2-5[8:1],7,2,6,
1-3[12:1],5,1,6,1-6[8:1],5,1>4[8:1],4,
5q1[8:1],6,4qq2[8:1],3,8<4[8:1],7,2-8[12:1],3,
2-7[8:1],6,2-5[8:1],5V38[16:3],2,6,7-4[8:1]*-2[8:1],,
7-3[8:1],,7,2,7-1[12:1],3,7,4,
7-5[12:1],3,7,4,{32}7,6,5,4,3,2,1,8,{4}7pp2[8:5]/3pp6[1:1],
3/7b,,,,1h,1h,1w5[8:1],1b,
1>4[8:1]/8,7<4[8:1],3>8[8:1],5<7[12:1],
{8}2>5[8:1]*<7[8:1],2,2,,6w2[8:1],,6,,
{16}7,5,6,4,5,3,4,2,5,3,6,4,6,3,5,3,
6,4,5,3,6,4,5,3,6-1[8:1],,3-8[8:1],,6,,3,,
{8}5b-8[8:1],,3-6[8:1],,7-2[8:1],,4-2[12:1],,
7-2[8:1]*-4[8:1],7,7,,3>8[8:1]*<6[8:1],,3,,
{16}7,1,8,2,7,2,8,1,7,2,8,1,8,2,7,1,
{4}1>8[8:3],1h,1w5[8:1],1b,
{8}1-3[12:1],8,7-5[12:1],8,4-1[8:1],3,4-2[12:1],5-7[12:1],
4-8[8:1],5,4-7[8:1],,4w8[8:1],,4,,
{16}26,6,4,5,3,6,2,7,3,5,4,6,4,5,2,5,
3,7,4,6,4,5,2,7,4,5,3,6,4,5,2,7,
{8}1b>3[12:1],8,7<5[12:1]/1,8,1/7-4[8:1],2,7-3[8:1],1-4[8:1],
7-5[12:1],1,7-2[8:1],,7w3[8:1],,7,,
{16}1b/5,5,2,6,1,5,3,7,2,5,3,4,1,6,8,4,
1,2,3,4,5,61,2,3,4,5,6,7,84,3,2,1,
{8}4b-8[1:2]/8,,,,,,,,3h,,,2h,,,4h,,5h,,,6h,,,7pp2[1:1],,,,,,,,
4h,,3bqq7[8:7],,,8h,,7h,,6h,,,8h,1h,2h,3h,4h,5h,6>7[4:3],,,6h,,,5h,,
6z2[4:1],,,,5-1[8:1],,,,
{16}3,4,3,4,3,4,3,4,3,4,3,4,3h[8:1],,7b,,
6,5,6,5,6-8[12:1],5,6-4[12:1],5,6-2[8:1],,,,,,,,
3,5,3,5,3,5,3,5,3-7[8:1],5,3,5,3h[8:1],,,,
6,4,6,4,6,4,6,4,7h,,1h,,3h,,5h,,
7,8,7,8,7,8,{24}7,6,5,{16}2,1,2,1,2,1,{24}2,3,4,
{16}8,1,8,1,8,1,{24}8,7,6,{16}1,8,1,8,1,8,{24}1,2,3,
{16}7,5,6,4,5,3,4,2,{24}8,1,8,1,8,1,8,1,8,1,8,1,
{8}8bz4[8:1],,,,2-5[12:1]/7-4[12:1],36,,,
{16}1/8-4[8:1],,2,,8,1,,2,2q6[8:1],,3,4,2,,7,
{16}7,5-1[8:1],6,4,,5,6,,7,7<4[8:1],,1,,7,,1,,
{16}3v8[8:1],4,,4,3,5,5,,5q1[8:1],,1,,5,,3,,
{16}3-1[12:1],4,,4,3,,7,7,8-4[8:1],6,1,,8,,6,,
{16}5-2[8:1]/7,,4,,5,6,,1,1v4[8:1],,2,8,1,,7h[8:1],
{16},5>2[8:1],7,7,,5,6,,7,7<4[8:1],,3,,7,,3,,
2,1,3,8,4b,7,5,6,3,4,2,6,5bp2[8:3],7,5,6,
5b,,7,,7pp3[8:3],,7,,2h[4:1]/7,,,,,,,,
2-5[8:1],4,3,4,2,,{24}1,8,7,6-2[8:1],,,{16}5,7,6,,7,,
7-4[8:1],5,6,5,7,,{24}8,1,2,3-7[8:1],,,{16}4,2,3,,2,,
2-7[8:1],8,1,8,2,,{24}6,5,4,3V58[16:3],,,{16}2,4,3,,,,
{32}7b,6,5,,1b,2,3h[8:1],,,,8b,7,6h[8:1],,,,2b,3,4h[8:1],,,,7b,6,5h[8:1],,,,8b,1,2,,
{16}6-1[8:1],5,6,7,6b,,{24}2,3,4,5-1[8:1],,,8,7,6,5b/3,,,3,,,
{16}3-8[8:1],4,3,2,3b,,{24}7,6,5,4-8[8:1],,,1,2,3,4b/7,,,7,,,
{16}56,,56,,45,,34,,2,1,4,7,8pp3[8:5]*qq5[8:5],5,1,6,
{4}8b,,,3-7[8:1],
{8}3b,,1>4[8:1],,7<4[8:1],,3>1[12:1],,
6<1[8:1]*>3[8:1],6,6,,2z6[8:1]*z6[8:1],,2,,
{16}3,4,3,4,1b,5,4,5,4,8b,5,6,3,8,5,6,
{32}2b,3,4,,,,8b,7,6,,,,3b,4,5,,,,7b,6,5,,,,{48}1b,2v5[8:3]/8v5[8:3],37,46,5,
