&title=Tell Your World
&artist=kz
&smsg_5=点は線になる
&first=3.00
&lv_1=1
&lv_5=13
&des_1=音
&des_5=GANTZ
&wholebpm=150
&demo_seek=41.1
&demo_len=15
&inote_1=(150)
{4}1,8,1,8,1,8,1,8,1,8,1,8,1,8,1,8,1,8,1,8,1,8,1,8,1,8,1,8,1,8,1,8,
1,8,1,8,1,8,1,8,1,8,1,8,1,8,1,8,1,8,1,8,1,8,1,8,1,8,1,8,1,8,1,8,E
&inote_5=(150)
{8}
86,1,2,3v8[8:1],,3,4,4-7[8:1],
,4,2,2v4[8:1],,2,8h[8:1],,
13,8,7,6v1[8:1],6,6,5,5-2[8:1],
5,5,7,7v5[8:1],7,7,1h[8:1],,
86,1,2,3V51[4:1],3,3,7,7V15[4:1],
7,7,3,3v1[8:1],3,3,6h[8:1],,
86,17,28,31,3,3v8[8:1],4,3b,
,,,51,6,7,8,13,
1v6[8:1],,,5,5v2[8:1],,,4,
2^7[6.25#192:1]/4-6[8:1],,,2,2,3,3,4q5[1:1],
,4,5,,,,,,
,,,65,6h[8:1]/4h[8:1],,43,35,
,26,2q5[8:3]/6,,,,,1,
1-5[8:1],,1^4[8:1],,1q5[8:1],,1pp4[8:3],,
1,,,,6h,,,43,
2b/5,,,5h[8:1],8h[8:1],6h[8:1],1h[8:1],7h[8:1],
2h[8:3],,,8,8-4[8:1],,,1,
1V35[4:1],,,8,7,6,3,2/5^8[8:1],
,2,2^5[8:1],,,7,6-1[6.25#192:1]*-1[6.25#192:1],5,
4/2v5[8:1],,,7,7^4[8:1],,72,2V46[4:1],
,2,7<2[8:3],,,,,6,
6-4[8:1],,62,2-4[8:1],,26,,6h[8:1],
4h[8:1],,5,5h[8:1],3h[8:1],,4,4h[8:1],
2h[8:1],,2h[8:1]/5h[8:1],,3h[8:1]/6h[8:1],,3h[4:1]/7h[4:1],,
,,37,,2-5[8:1]*-5[8:1],37,2b/6b,,
8V64[4:1]/4,,4V68[4:1],2,8qq5[8:3],2,3,4v1[8:1],
,4,,5,52,6,6-1[6.25#192:1]*-4[8:1]/3,6,
6/4^2[8:1],,45,5-7[8:1],,5-3[8:1]/3,,5-7[8:1]/7,
,3b,,2-4[8:1],2,2/5-7[8:1],5,5/4V63[4:1],
4,,7,7v4[8:1],,2v5[8:1]/7,,2,
,7h[8:1],,75,6,64,5,53,
4^7[8:1]/2,,,2^4[8:1],2,,7^5[8:1],7,
,2,5,25,{16}25,36,47,,{8}2bpp5[8:3]/6b,,
2,,8,8V63[4:1],,3V58[4:1],2,1v4[8:1],
,1,,8,71,2,38,7,
1h[8:1]/6h[8:1],,37,8p4[8:1]/4p8[8:1],,8^3[8:1],,8-4[8:1],
,83,,1,2,36,8,7,
16,,1^4[16:3],3^6[16:3],5^8[16:3],7^2[16:3],1^4[16:3],,
,,,1,8/2-8[8:1],7,62,5,
4-8[8:1],,4,5,5-1[8:1],,5,4,
4^7[8:1],,4-8[8:1],,4v1[8:1],,4^2[8:1],,
4b<4[1:1],,,,,,,,
,,,,2h[8:1],,3-8[6.25#192:1]*-8[6.25#192:1]/4,5,
6qq2[1:1]/3,,,,,,,,
,,,,2h[8:3]/4h[8:3],,,,
2pp6[1:1]/5,,,,,,,,
,,,,4h[8:3]/6h[8:3],,,,
46,35,2/4pp2[8:3],,45,,,,
4,5,{16}6,2,{8}6,7-4[8:1]*-4[8:1]/3,,7b/3b,,
1V35[4:1]/5,,5V31[4:1],7,1pp4[8:3],7,6,5v8[8:1],
,5,,4,47,3,3-8[6.25#192:1]*-5[8:1]/6,3,
3/5^7[8:1],,45,4-2[8:1],,4-6[8:1]/6,,4-2[8:1]/2,
,6b,,7-5[8:1],7,7/4-2[8:1],4,4/5V36[4:1],
5,,2,2v5[8:1],,7v4[8:1]/2,,7,
,2h[8:1],,24,3,35,4,46,
5^2[8:1]/7,,,7^5[8:1],7,,2^4[8:1],2,
,7,4,74,{16}74,63,52,,{8}7bqq4[8:3]/3b,,
7,,1,1V36[4:1],,6V41[4:1],7,8v5[8:1],
,8,,1,28,7,16,2,
3h[8:1]/8h[8:1],,26,1q5[8:1]/5q1[8:1],,1^6[8:1],,1-5[8:1],
,16,,8,7,63,1,2,
83,,8^5[16:3],6^3[16:3],4^1[16:3],2^7[16:3],8^5[16:3],,
,,,8,1/7-1[8:1],2,37,4,
5-1[8:1],,5,4,4-8[8:1],,4,5,
5^2[8:1],,5-1[8:1],,5v8[8:1],,5^7[8:1],,
5b>5[1:1],,,,,,,,
,,,,7h[8:1],,4,3,
2b<2[1:1]/5b,,,,,,,,
,,,,5,6,73,,
57,6,46,5,35,4,24,,
24,3,35,4,46,5,57,,
{16}5,6,5,6,4,7,4,7,3,8,3,,12,,,,
2,1,2,1,1,8,1,8,8,7,8,,1-5[8:1]/6<6[1:2],,,,
{8}
1b/6b,,,,,,,,
,,,,,,,,
2,3,4,5,,3,4,5,
,3,4,5,,3,4,5,
,,,,,,,,
,,,,,,,,E
