&title=[DX]幸せになれる隠しコマンドがあるらしい
&artist=うたたP
&first=0
&des=舞萌吃变得更加幸福的指令
&lv_5=14
&inote_5=(142){4}
,,,,
C,C,C,C,C,C,C,Ch[4:12],
E3,E5,E1,E3,D3,E5,B2/B3,E3/D3,
B8/B1,E1/D1,B4/B5,E5/D5,C/E7,C/E3,C/D7,C/D3,
C/B2/B3/E3,C/B4/B5/E5,E1/B1/B8/C,C/B2/B3/E3,
C/B2/B3/E3,C/B4/B5/E5,C/B2/B3/E3,C/B2/B3/E3,
C/E1/B1/B8,E1/B8/B1/B2/B7,C/E5/B4/B5,E5/B5/B4/B3/B6,
C/E7/B7/B6,C/E3/B2/B3,C/E7/B7/B6,C/E3/B2/B3,
{32}
E7,C,B2/B3/E3,,,,,,
E1,C,B4/B5/E5,,,,,,
E5,C,B1/B8/E1,,,,,,
E7,C,B2/B3/E3,,,,,,
E7,C,B2/B3/E3,,,,,,
E1,C,B4/B5/E5,,,,,,
E7,C,B2/B3/E3,,,,,,
E7,C,B2/B3/E3,,,,,,
{64}4x,E4,B3,B2,E2,1xh[4:1],,,{8},{64}5,E6,B6,B7,E8,8xh[4:1],,,{8},
{64}E2,B2,B3,E4,4xh[16:7],,,,{8},{64}E8,B7,B6,E6,5xh[16:5],,,,{8},
{16}
,,,,,,{32}E5,C,B1/B8/B2/B7,E1,{16}1xh[8:3]/8xh[8:3],,,,,,,,
{24}
26,,,2,4,3,5b,,,2,5,3,6b,,,2,5,4,7b-2p5[16:7],,,4x,3x,2x,
{4}
1xb-4-1[16:7],1,6-3[16:3],7-2p5[32:15],
8-5q2[16:7],8,6-3[16:3],4-1[16:3],
5-8-5[16:7],E1,1-4[8:1],3x-7-2-6-3b[16:14]*-6-2-6-3b[16:14],
3,,,7-2p5[16:7],
1x-4-1[16:7],1,6-3[16:3],7-2p5[32:15],
8-5q2[16:7],8,6-3[16:3],4-1[16:3],
5-8-5[16:7],E1/B1,1-4[8:1],B4/B5,
{8}2h[4:2]/5,5,{24}3,4,5,6,7,8,1h[4:1],3,4,5,6,7,{4}8bV27[16:3],
8-5[16:2],B4/B5,4bv5[8:1],E5/6-3[16:1],
E6/5x-8[8:1],4x/E6,B6/E6/8x,E2/B2/4xq8[6:1],
4-1-4[16:7],E1/B8,5v6[8:1],E6/5-8[8:1],
5x/7x,8/B6/E6,4v5[16:3]/B2/E2,E5/5xV36[16:3],
8-5[16:2],4-1[16:2],6-3[8:1],4v5[8:1],
6-3[8:1]/E5,E6/5-8[8:1],4X/E6,1/B3/E4,
3-1[12:1]/4-1[12:1],34,8-5[12:1]/7-5[12:1],78,{8}
C,7>3v5[8:3],,,,,,,{24}
4b/6,3,2,8,7,6,3,2,1,7,6,5,2,1,8,7,6,5,2-6[16:1],1,8,7,6,5,
{64}4,C,,,{16},8x,,{8}35,7,{24}6V47[16:3]/5,4,3,2,1,8,{8}6,C/B1,
35,7,46,2,{24}3V52[16:3]/4,5,6,7,8,1,{8}3,C/B7,
2x/8,6,17,3,{24}2V83[16:3]/1,8,7,6,5,4,{8}2,C/B5,
71,3,82,6,{24}7V16[16:3]/8,1,2,3,4,5,{8}7,C/B3,
35,2,34,5,{24}4-8-3[16:3]/6,7,8,1,2,3,{8}4x,B4/B5,
64,7,65,4,{24}5-2-6[16:3]/3,2,1,8,7,6,{8}5x,B4/B5,
1h[4:1],3,8h[4:1],6,{24}6-1-4[16:3],5,4,3,2,1,{8}6,C,
7x/B4,2/B5,8/B3,1/C,{16}B6/E6,B3/E4,B7/E8,B2/E2,B6/E6,B3/E4,B7/E8,B2/E2,
6x,6xh[8:1],,{8}5^8[12:1],4,3-5[12:1],{16}2,1,{8}3,7,{16}1,
1,8h[8:1],,{8}1^6[12:1],2,3-1[12:1],{16}4,5,3,7,7,8,6,
1,5,,{8}3/4^1[12:1],45,6-4[12:1],{16}7,8,{8}6,2,{16}8,
8,1h[8:1],,{8}7,56,34,{16}75,46,3x/5x,,7x/5x,4x/6x,3x/5x,
{4}
4xh[2:1]/2x,B4,1h[2:1],B1,6h[4:1],4-7-5-8b[16:6]*-1-3-8b[16:6],,,
2xh[2:1],B2,8h[2:1],B8,4h[4:1],5b-2-4-1b[16:6]*-8-6-1b[16:6],,,{16}
1x,8,2,1,C,,,,78,,16,,C,,,,23,,24,,C,,E5,,78,,68,,C,,E5,,
2x,4x,2x,4x,3,5,3,5,4,6,4,6,C,,E5,,
B2,B7,Ch[8:1],,{24}E7,B6,B5,E3,B3,B4,8x,7,6,5,4,3,7x,6,5,4,3,2,
1b/8b,7,6,5,4,3,2b/7bV51[4:1],,,,,,{8}1V37[4:1],,7V51[4:1],,1V37[4:1],,7,,
1x/B2/B3,B2/B3,6x/B4/B5,B4/B5,2x/B1/B8,B1/B8,4x/B2/B3,B2/B3,
8V62[4:1],8,2V48[4:1],C,8V62[4:1],C,2,,
B1/B8,B1/B8,3x-7-2[16:3]*-6-2[16:3]/B4/B5,B4/B5,,,B8/B1,B2/B3,
1xV38[4:1]/8x,,8V61[4:1],,1xV38[4:1],,8>5[8:3],,5,6,7,8,
B4/B5,B3/B2,B1/B8,B2/B3,
B6/B7/3x-6[12:1],,7pp2[16:6],,3^6[8:1],,,,
1h[4:2],5h[8:3],Chf[4:1],,,,4-7[12:1]/8-3[12:1],48,
Cf,,,,,,1-6[12:1]/5-2[12:1],15,Cf,,,,,,3^6[12:1]/7p2[12:1],26,
Cf,,,,,36,2q7[8:1]/7p2[8:1],18,Cf,,,,,34,6-1[12:1]/1v4[12:1],16,
Cf,,,,,56,3-8[12:1]/8v5[12:1],83,Cf,,,,,27,6q3[8:1]/3p6[8:1],45,
Cf,,,,,36,7^5[12:1]/2^4[12:1],18,D5f,,,,{16}
B7/E8,B2/E2,B6/E6,B3/E4,B7/E8,B2/E2,B6/E6,B3/E4,{8}
4x/7x,4x/7xh[8:1],5,5h[8:1],{24}2,1,8,7,6,5,1-5[12:1],8,7,6,5,4,
{64}3,C,,,{16},2,,{8}14,1/4h[8:1],{24}7,8,1,2,3,4,8-4[12:1],1,2,3,4,5,
{64}6,C,,,{16},7,,{8}58,8/5h[8:1],{24}2,1,8,7,6,5,2-6[12:1],1,8,7,6,5,
{64}4,C,,,{16},3,,{8}78,5,{16}1bh[8:1]/3bh[8:1],,,1bh[8:1]/3bh[8:1],,,54,,
{16}7b/8b,,2,,{8}45,6/5h[8:1],{24}4,3,2,1,8,7,4-7-2[16:3]/6,3,2,1,8,7,
{64}4b,,,,{16},1x,,{8}3,3/4h[8:1],{24}5,6,7,8,1,2,3/5-2-7[16:3],6,7,8,1,2,
{64}5b,,,,{16},8x,,{8}6,6/5h[8:1],{24}4,3,2,1,8,7,4q7[16:6]/6,3,2,1,8,7,
{64}4b,,,,{16},,,{8},,{16}B6/E6,B3/E4,B7/E8,B2/E2,5xV36[16:3],3x,6x,2xV41[16:4],{4}
5x,6V85[16:3],6-3[8:1],8V27[16:3],
2V41[16:3],8V27[16:3],5V36[16:3],4-1-3[16:3],
5-8-6[16:3],1-4-2[16:3],8-5-7[16:3],4V63[16:3],
8V27[16:3],4V63[16:3],7-2[16:2],4V63[16:3],
4x/2xV41[16:3],2/6V85[16:3],6/2-7[8:1],2/3-6[8:1],
3/2V41[16:3],2/5V36[16:3],5/8V27[16:3],8/6V85[16:3],
6/3V14[16:3],3/7V58[16:3],7/2V41[16:3],2/6-3[8:1],
6/8V27[16:3],8/4V63[16:3],4/8V27[16:3],
48,{8}Ch[16:8],,,{32}E3,B4,B6,E8,1bx,
