&title=千紫万紅
&artist=r0y vs.WABI
&first=0.04
&des=北川大树 vs.chara
&des_1=北川大树 vs.chara
&des_2=北川大树 vs.chara
&des_3=北川大树 vs.chara
&des_4=北川大树 vs.chara
&des_5=北川大树 vs.chara
&des_6=北川大树 vs.chara
&des_7=北川大树 vs.chara
&clock_count=4
&lv_5=14
&inote_5=(203)
{1},
{16},
{8},,,,,,,,6,,,,,,4h[8:1],5h[8:1],4h[8:4],,,,7,7h[8:1],8,8h[8:1],1h[8:4],,,,2h[8:4],,,,6h[8:4],,,,4,,,,3,
{16}5,4,5,4,5,4,5,4,5,4,5,4,5,4,5,6,7,8,1,2,3,4,1,2,3,4,8,7,6,5,C,
{8},,,,,,,
{16},5xw1[16:9],,,,,,,,,,,,,,,,
{8}3x/7x,6,5,4,36,2,1,8,27,3,4,5,63,7,8,1,2hx[8:7],8,7,6,5,4,5,6,7x/3x,6,51,2,4>2[8:1]/8<5[8:1],
{8},,,1,1,1,1,17,7,7,7,2,2,6,6,34,34,56,56,
{16}3,6,2,7,3,6,2,7,3,6,4,5,2,7,1,8w4[8:4],,,,,,,,,,,,,,,,,
{32}2xb,3,4h[16:11],,
{16},,7-5[8:1],,,,,,,,8-5[8:1],,
{16}3,2,1hx[32:8],
{16},,,C,,,,6h[8:2],,,,C,,,,
{8}2hx[16:4]/8hx[16:4],,,2hx[16:4]/8hx[16:4],,,
{16}37,,46,,5,,,5h[16:5],,,7,8,1,,,27,,,38,,
{16}2hx[16:2]/1hx[16:2],,,2hx[16:2]/1hx[16:2],,,2x/1x,,,,3h[16:6],,,,
{16}7,6,5xb<1[8:5],,,,2,,2,,3,,3,,4,,4,,
{16}6hx[16:2]/5hx[16:2],,,6hx[16:2]/5hx[16:2],,,6x/5x,,,,7h[16:6],,,,
{16}3,2,1xb>4[8:5],,,,6,,6,,7,,7,,7,,,,
{8}56,64,56,,6xh[8:1]/4,5,4xh[8:1]/6,5,45,36,27,1/8<6[8:2],,,
{8}1,2,34,35,34,,3xh[8:1]/5,4,5xh[8:1]/3,4,63,62,61,6/8>4[8:3],,,,,
{8}6,6,47,47,38,38,21,21,78,78,16,16,25,25,34,34,
{16}5x,6,7,8,1,2,3,4,5x/1,26,37,48,
{32}5x,6x,7x,8x,1x,2x,3x,4x,5bv3>1[8:4]/1bv7<5[8:4],,,,
{8},,,,,,,
(101.5)
{16}1x,,7v5[16:1]/3v1[16:1],73,7v8[16:1]/3v4[16:1],73,7v6[16:1]/3v2[16:1],,,,,,
{16}15,15,1v4[16:1]/5v8[16:1],15,1v6[16:1]/5v2[16:1],,1v3[16:1]/5v7[16:1],,,,,,
{16}1x,,2-4[16:1]/8-4[16:1],28,2-5[16:1]/8-5[16:1],,2-6[16:1]/8-6[16:1],,,,,,
{16}17,17,1-5[16:1]/7-5[16:1],17,1-4[16:1]/7-4[16:1],,1-3[16:1]/7-3[16:1],,,,,,
{16}81,82,83,84,8h[16:2]/5,,
{32}5bx,4,3,2,1/5b,8,7,6,5/1b,,,,
{16}18,17,16,15,1h[16:2]/4,,
{32}4bx,5,6,7,8/4b,1,2,3,4/8b,,,,
(203)
{8}1x/5x,,26,37,4/8<4[8:2],,4>8[8:2],,8<5[8:2],,4,,
{8}8x/4x,,73,62,5/1>5[8:2],,5<1[8:2],,1>5[8:2],,5w1[8:1],,Cf/B1/B2/B3/B4/B5/B6/B7/B8/5bx>5z1[8:20]*<5s1[8:20],
{8},,,,,,,,,,,,,,,,,,,,,,
{16},,8xh[8:4],,,,,,,,1xb,8xb,3xb,6xb,1xb,8xb,3xb,6xb,2xb/7xb,
{16},,,,,,,5xw1[8:1],,,,,,,,2,,2,,6,,3,,3,,7,,4,,4,,
{8}5x/6x,7,5x/6x,7,5x/6x,7,5x/6x,7,8,
{8}1,1-3[8:1],1-6[8:1],1x-4[8:1],1x-7[8:1],1x-3[8:1],1x-5[8:1],,,,,6b-1[8:1]/2x,,
{32}2x,3,4,,,,,,
{8}6b-1[8:1]*<7-1[8:1],,
{32}2x,3,4,,,,,,
{8}6b-1[8:1]*<1[8:1],,
{32}2x,3,4,,,,,,
{16}5,,5,,4,,4,,3,6,2,7,1,8,2,7,
{16}B1/B2/B3/B4/B5/B6/B7/B8/E1/E2/E3/E4/E5/E6/E7/E8/Cf/A1/A2/A3/A4/A5/A6/A7/A8,,
{8},,,
{16}2x,3,4,5,6,7,8,1,2xh[8:2],,,,A7,,,,
{16}5,6,4,5,3,4,2,3,1h[8:2],,,,A7,,,,8h[8:1],,5,,1h[8:1],,6,,2h[8:1],,7,,3h[8:1],,8,,
{16}4,5,6,7,8,1,2,3,4/7,6,5,4,3,2,1,8,7/3,2,1,8,7,6,5,4,3x>8[8:5]/7,,,,7,,,,6,,,,6,,,,
{16}5x<8[8:5]/2,,,,2,,,,3,,,,3,,,,
{16}2x,,2,,5,,5,,3x,,3,,6,,6,,
{16}2,7,4,5,2,7,4,5,1,8,3,6,1,8,3,6,
{16}2x/4x,,3x,,7x/5x,,6x,,2/4x,,3,,7x/5,,6,,
{16}24,,35,,46,,57,,8<6[8:1]/6>4[8:1],,,,86,,,,1x>1[8:14]/2,,
{8},,,,,,,,,,,,,,,2>2[8:6],,,,,,,,C,,,,,,,,
{4}B1,,,,B3,,,,B5,,,,B7,,,,
{4}1>6[8:14],,,,C,,,,2>8[8:12],,,,C,,D3,,
{8}3b,4,5,6,7h[8:4],,,,3,4,5,6,7h[8:4],,3,2,1b>4[8:4],,,5,6,,7,,8b<5[8:1],,,,
{8}2,34,65,7,1b/8b,2,18,7,18,2,18,7,3b/4b,2,56,7,34,2,56,7,
{16}25,,3,4,3,,16,,2,,37,,6,,52,,3,,6,5,6,,3,4,3,5,4,6,3,7,2,8,1b,,,,
{16}1,1,1,1,1,1,1,1,1,1,1,1,
{64}1bx,D1f/D2f,2x/8x,,3x/7x,,6x/4x,,5xbw1[8:3]b,,,,
{16},,,,,,,,,,,,,8b/2b,,34,,56,,78,,12,,6,5,6,,3,,21,,8,,65,,45,,34,,,,
{16}1,,8,,
{32}2b,3,4,5,8b,7,6,5,
{16}1,,8,,
{32}2b,3,4,5,8b,7,6,5,
{16}1,,8,,3b/5b,,4b/6b,,2b/4b,,5b/7b,,1b/8b,,,,
{16}4-1[8:1],,5-8[8:1],,4,,5,,2,3,4,5,6,7,8,1,35,,26,,1b/7b,,,,
{16}2,5,3,6,4,7,5,8,3,6,4,5,2b/7b,,3,4,3,5,4,,62,,37,,48,,37,,28,,46,,28,,46,,
{16}1b-5[8:1],1b,1b,1b,1b,,,,
{16}2b/8b,,37,,46,,5,,34,,2,1,2,,34,,56,,78,,1,,24,,56,,,,8b,,,,
{32}1b,2,3,4,7b,6,5,4x,
{16}1,,8,,
{32}2b,3,4,5,8b,7,6,5x,
{16}1x,,8x,,
{32}1b,2,3,4x,7b,6,5,4x,1b,2,3,4x,8b,7,6,5x,2b,3,4,5x,
{16},,8b<1[8:8],,,,Chf[8:8],,
{8},,,,,,,
{16},,,,1,8,2,7,1,8,2,7,3,6,4,5,2b/7b,,
{16}3,4,2,,6,5,7,4,5,3,6,2,7,1,8xh[8:4],
{16},,,,,,,1b,1b,1b,1b,1b,1b,1b,1b,
{16}28,,3,,45,,56,,7,,4,6,2,7,3,8,2,,6-3-5-1<6[8:6],,,,1,,2,,2,,3,,3,,
{16}4x,3,2,1,4x,3,2,1,8x/3x,27,16,58,7x,6,5,4,3x/7x,,26,,15,,8>3[8:1]/4<7[8:1],,,,8b/4b,,,,,,
{16}5x,6,5,6,1x,8,1,8,3x,4,3,4,8x,7,1,6,2x,7,2,6,2x,5,2,4,2x,1,2,8,2x,7,2,6,
{16}5xb,4,3,2,1,8,7,6,
{32}5x/2b,3,4,5,6,7,8,1,2b,3,4,5,6,7,8,,2b/1bxh[32:4],3,4,5,6,,,,,,,,7b/8bxh[32:4],6,5,4,3,,
{16},,,1b,1b,1b,1b,
{8}2x,3,4,5,6x/3x,7,8,1,2x/7x,3,4,5,6,7,8,1,2h[8:2],,
{16}8,1,8,1,8,1,8,1,8,1,8,2xh[16:13],,,,3,,,4,,,5,,,6,,,,,,,,7p5[8:8],,
{8},,,,,,,,,4b,
E
