&title=world.execute(me) ;
&artist=Mili
&first=0.015
&des=return 0;
&lv_5=12+
&inote_5=(130)
{1},
{4}2-8[8:1]/4h[4:3],,7-4[8:1],,
{8}5x-2[8:1],,3<4-6-1[4:1],3h[8:3],,,,,
{4}7-5[8:1]/4h[4:3],,5-1[8:1],,
{8}3x-5[8:1],,6<4[4:1],7h[8:3],,,,,
{4}8<6[8:1]/5h[4:3],,8-4[8:1],,
{8}3x-8[8:1],,7-4>2[4:1],6h[8:3],,,,,
{4}1>3[8:1]/5h[4:3],,4<6[8:1],,
{8}7xv5[8:1],,5>1[4:1]*<1[4:1],,,,,,
{8}8b<4[4:1]/2b,,1h[8:1],,8-5-3[4:1],,7h[8:1],,
{8}6-2-8[4:1],,5h[8:1],,4-7[8:1],,3h[8:1],,
{8}2pp2[4:1],,1h[8:1],,8-5-2[4:1],,7h[8:1],,
{8}6pp7[4:1],,5h[8:1],,4w8[8:1],,,,
{8}28,,{12}3x,4,3,6x,5,6,2x,4,2,
{12}7x,8,7,2x,1,2,5x,4,6,3x,,,
{12}2h[12:1],1,3,7h[12:1],5,8,3h[12:1],4,2,8h[12:1],1,7,
{8}3xq1[4:1],,1>6[4:1],,6V84[4:1]b,,,,
{4}5,5/3x,5/B1/E3,5/C/B6,
{4}5/8x>4[4:1],5,6v8[8:1]*v3[8:1],,
{4}2,2/8xqq5[2:1],2,2,
{4}2,2>6[4:1]*<6[4:1],,,
{4}8,8/3xs7[4:1],8,8,
{4}8,8q5[4:1],8-3[8:1],,
{4}6,6<8-4[4:1]/4x,4>2-6[4:1],,
{4}1-5[8:1],5qq2[4:1]*pp8[4:1],,,
{8}1-6[8:1],,1/5pp4[4:1],,,,2,2,
{8}1-4[8:1],4-1[8:1],,,8-5[8:1],,8,,
{8}2-6[8:1],,5w1[8:1],,,,7,7,
{8}6<1[8:1]/1>4[8:1],5,6qq3[4:1],,,,,,
{8}7-4[8:1],,4V63[4:1],,2-7[8:1],2,,,
{8}1x-3<4[8:1]b/5,6bxh[4:1],,,7-4[8:1]/5-2[8:1],8,,,
{8}1<1[2:1],,5>4>3>2<1[4:1]b,,,,,8,
{8}7h[4:1],5,5,1h[4:1],4-2[8:1]*-6[8:1],4,,,
{8}3b-5[8:1]/8b,,3-1[8:1]/7-1[8:1],6,3/7-4[8:1],,1/7,2,
{8}3h[4:1],1,5h[4:1],1,3<6[8:1],3h[4:1],,,
{8}7-3[8:1],,7<5[8:1]/4>1[8:1],,4q8[8:1],,4,,
{8}2h[4:1],1,7h[4:1],6,5s1[8:1],5,,,
{8}6x-8[8:1],,6/1,2,3<6[8:1]/6>3[8:1],B2/B7,,,
{8}2-5[8:1],1-6[8:1],2,1,4h[4:1],,B1/B2/B3/B4/E3,,
{8}7V53[4:1],,3V17-5[8:3],2,1,,4h[4:1],,
{8}D2/E2/E3/B3,,B7/E7/E6/D6,,1-4[8:1],1h[8:3],,,
{16}E6,E7,E8,,4h[8:1],,,,1h[8:1]/4h[8:1],,,,4h[8:1],,E6,E7,
{16}E8/4h[8:1],,,,4h[8:1],,,,2h[8:1]/4h[8:1],,,,4h[8:1],,,,
{16}7h[8:1]/4h[8:1],,,,7h[8:1],,,,5h[8:1]/7h[8:1],,,,5h[8:1],,,,
{16}3h[8:1]/5h[8:1],,,,3h[8:1],,,,1h[8:1]/3h[8:1],,,,1h[8:1],,,,
{16}2>4[8:1]/8<6[8:1],,,,28,,,,5v7[8:1]*-3[8:1],,,,5,,,,
{16}2<8[8:1]/6>4[8:1],,,,26,,,,7-4[8:1]*-5[8:1],,,,7,,,,
{16}2<7[4:1],,,,7<4[4:1],,,,4>1[4:1],,,,8,,6x,5x,
{16}4xh[4:3],,,,,,3x,2x,1xh[4:1],,,,,,,,
{8}2x>7<2[2:7],E4,E5,E6,,E4,E5,E6,
{8},E4,E5,E6,,E4,E5,E6,
{8},E4,E5,E6,,E4,E5,E6,
{8},E4,E5,E6,,E4,E5,E6,
{8}2xh[8:1],E4,E5/2xh[8:1],E6,1xh[8:1],E4,E5/1xh[8:1],E6,
{8}8xh[8:1],E4,E5/8xh[8:1],E6,1xh[8:1],E4,E5/2xh[8:1],E6,
{8}E3,,C,,C/E3,,E7,,E3/E7,,
{8}C/E7,,1s5[8:1]b/8z4[8:1],18,,,
{8}2bxq6[8:1],,2/8<5[8:1],1,8/4V61[4:1],,2,3,
{8}4-2[8:1],8,4<7[8:1],7>2[8:1],6b-2[8:1]b,,,,
{8}1/3p7[8:1],,3/5<8[8:1],4,5/1V74[4:1],,3,2,
{8}1-6[8:1],6-4[8:1],,,7x-3[8:1]b,8x-2[8:1]b,,,
{8}5<8[8:1],,2p6[8:1],3,4>1[8:1],,4<7[8:1],,
{8}8p4[8:1],1,2<4[4:1]b,3,2b,,B2/C/B6,,
{8}1V36[4:1]/5,,6xV48[4:1],7x,8xV25[4:1],,5x<5[2:1]b,6x,
{8}7x,,5xw1[4:1],,,,,,
{8}3<5[8:1],,6,7,8-2[8:1],,2,3,
{8}4-2<1[8:1],5,4/6-4v7[4:1]b,,{128}6bxh,8xh[64:1],{64},{32},{16},1h[96:1],,1h[128:1],,1h[144:1],,
{8}2-5[8:1],,5,6,7-4[8:1],,3,2,
{8}1>2-4[8:1],8,1v7-4[4:1]b/7,,{128}1bxh,,{64},{32},{16},3h[96:1],,3h[128:1],,3h[144:1],,
{8}2<7[8:1],,6,5,4p8[8:1],,8,7,
{8}6<7v4[8:1],,1>2V46[4:1]b,,{128}1bxh,6xh[64:1],{64},{32},{16},7h[96:1],,7h[128:1],,7h[144:1],,
{8}8<3[4:1],,3,2,1-4[8:1]*-6[8:1],,1,,
{8}5-3>2v4[4:1],,6v8<7-5[4:1]b,,,,3h[128:1],2>8<2[8:29]b,
{1}1bh[4:15],,,,
{8}8x-5[4:1],1,,1,2x-7[4:1],3,,3,
{8}4x-1[4:1],5,,5,6x-3[4:1],7,,7,
{8}8x-5[4:1],1,,1,2x-7[4:1],3,,3,
{8}4x-1[4:1],5,,5,6xw2[8:1],1xw5[8:1]b,,,
E
