&title=enchanted wanderer
&artist=linear ring
&first=0
&des=自由之旅
&lv_6=14
&inote_6=(204){1},,
{12}1h[48:20],,,,,5,,,,,,,
{12}1h[48:20],,,,,6,,,,,,,
{12}1h[48:20],,,,,7,,,,,,,
{12}1h[48:20],,,,,8,,,,,,,
{12}2h[48:20],,,,,1,,,,,,,
{12}2h[48:20],,,,,3,,,,,,,
{12}2h[48:20],,,,,5,,,,,,,
{12}2h[48:20],,,,,7,3h[48:20],,,,,6,
{12}4,,4,5,,5h[12:4],,,,,,,
{12}4,,4,6,,6h[12:4],,,,,,,
{12}4,,4,7,,7,5,,5,8,,8,
{12}1,,1,4,,4,2,,2,5,,5,
{12}4,,4,7,,7v4[4:1],,,,,,,
{12}3,,3,6,,6v8[4:1],,,,,,,
{12}2,,2,5,,5v3[4:1],,,,,,,
{12}1,,1,4,,4v7[4:1],,,,,,,
{12}5>2[4:1],,,8,,8,,,1,2,,2,
{12}8<5[4:1],,,2,,2,,,4,5,,5,
{12}3>8[4:1],,,5,,5,,,7,8,,8,
{12}6<1[4:1],,,4,,4,,,2,1,,1,
{12}3V15[12:5],,,8,,8,,,7,7,,4,
{12}6V48[12:5],,,3,,3,,,2,2,,7,
{12}1V73[12:5],,,6,,6,,,5,5,,2,
{12}4,,2,1,,5,7,,8,7,,2,
{4}4b-1[4:6],,3,3,4,5,6,7,
{12}2,,6,4,,8,5,,6,4,,5,
{12}2,,6,1,,7-3[24:3],8-2[24:3],,7,8,,,
{12}4h[12:3],,,,,1,4h[12:3]/1h[12:3],,,,,
{12}2,5/2h[12:3],,6,6,,3,3h[12:3]/6,,7,7,,4,
{12}6,5,6,3,4,3,6,5,7,3,4,2,7,6,7,2,3,2,
{12}8,,1,8<4[24:5],,1,
{12}8bpp2[24:5],,,,,,4,,1,4<8[24:5],,1,
{12}4bV63[24:6],,,,,,7,6,5,3V57[24:5],2,1,
{12}3bv8[24:4],,,,,,7,,1h[12:1],7V15[24:6],,1h[12:1],
{12}7bq4[24:5],,,,,,6,,6/5,,4<8[24:4]/5,,
{12}4b/3v1[24:5],,,,,,{24}8,7,6,5,4,3,2v4[24:5],1,8,7,6,5,
{12}4p8[24:4]/2b,,,,,,6,6h[96:1],5,7q8[24:9],,4,
{12}7b,,,,,,{24}3,4,5,6,7,8,1,2,3,4,5v8[24:4]*s1[24:4],,
{12}5,,,,,,
{12}2-5[24:3],,7,2qq4[24:9],,7,
{12}2b,,,,,,6,,3,4,,2,
{12}7h[96:1],8h[96:1],6h[96:1],2h[96:1],4h[96:1],3h[96:1],
{12}6h[24:4],,{24}3,2,{12}1v4[24:4],,4,
{12}4bqq7[24:10],,,,,,7bpp4[24:10],,,,,,
{12}4b<8[24:6]*qq3[24:6],,,,,,,,,5,4,5,
{12}6h[12:6]/4,,,,,,{24}4,3,2,1,8,7,6,5,4,3,2,1,
{12}4h[12:6]/8,,,,,,{24}8,1,2,3,4,5,6,7,8,1,2,3,
{12}4h[12:6]/8,,,,,,8,7,6,5/4,3,2,
{12}8v6[24:6]/1s5[24:6],,,,,,,,1,1>5[24:6]/8,,,
{12}5V38[24:6],,,6h[24:6],,,,,1,1>5[24:6],,,
{12}5V37[24:6],,,6h[24:6],,,,,8,8>4[24:6],,,
{12}4v6[24:5],,,6p2[24:4],,,1,8,7,6,7,8,
{12}1qq7[24:6]*V35[24:6],,,,,,,,,1/8<4[24:6],,,
{12}4V61[24:6],,,3h[12:3],,,,,8,8<4[24:6],,,
{12}4V62[24:6],,,3h[12:3],,,,,1,1<5[24:6],,,
{12}5qq3[24:5],,,3q7[24:4],,,8,1,2,3,2,1,
{12}8V24[24:6],,,4-1[24:3],,,7-3[24:3],,,7,,,
{12}2h[12:3],,,4h[12:3],,,5,6,7,8p5[24:10]/5,1/6,2/7,
{12}8/3,,,,,,1b,,7,7<3[24:5],,3,
{12}3v6[24:4],,,,,,2,7,3,8,4,1,
{12}5-2[24:3],,,1-5[24:3],,,3-8[24:3],,,7-4[24:3],,,
{12}1-4[12:19],,,,,,6,,6,5,,5,8,,8,2,,2,1,,,,,,
{12}8-5[12:19],,,8,,,2,,2,5,,5,4,,4,7,,7,8,,,,,,
{12}1b,,7,5,,1-5[24:3],2-4[24:3],,1,2,,,
{12}6b,,2,1,,4-8[24:3],7-4[24:3],,4,7,,,
{12}1,2,3,4/7,6,5,4/3,2,1,8/5,6,7,
{12}8/3,4,5,6/2,7,8,
{12}1q5[24:4]/5,,,,,,
{4}1<1[4:22],,,,
{4}2h[96:1],,,,
{4}3h[96:1],,,,
{4}4h[96:1],,,,
{4}5h[96:1],,,,
{4}6h[96:1],,,,
{4}8h[2:1],,7h[2:1],,
{4}6h[2:1],,{12}5,4,3,2,1,8,
{12}7q3[4:2]/3q7[4:2],,,,,,,,,,,,
{12}8v6[4:2]/4v2[4:2],,,,,,,,,,,,
{12}3-8[8:1]/7-4[8:1],,,,,,7>2[8:1]/3<6[8:1],,,,,,
{12}7,,5,5h[12:2],,3,3h[12:2],,1,1b-4[8:1],,,
{12}1,,,7,,3,4,,1,8-5[8:1],,4,
{12}8,,,2,,7,5,,1,2>5[8:1],,7,
{12}2,,,8<5[8:1],,3,8,,,2p6[8:1],,5,
{12}2,,,4q8[8:1],,1,4,,,3-5[8:1],,8,
{4}3-8[8:1],3/7-4[8:1],7/1-5[8:1],1/6-8[8:1],
{4}6-4[8:1]/3-1[8:1],3-7[8:1]/6,3/8w4[8:1]*w4[8:1],8,
{12}1h[12:1]/2h[12:1],,2h[12:1]/3h[12:1],,3h[12:1]/4h[12:1],,
{12}4h[12:1]/5h[12:1],,5h[12:1]/6h[12:1],,6h[12:1]/7h[12:1],,
{12}7h[12:4]/8h[96:1],,1h[96:1],,2h[96:1],,
{12}3h[12:4]/5h[96:1],,6h[96:1],,7h[96:1],,
{12}8h[12:3]/5h[96:1],,,,,,{24}5/8,4/7,3/6,2/5,4,3,2-6[8:1],1,8,7,6,5,
{12}4>6[4:1]/2,,,,,,2b,,,1-4[8:1],,8,
{12}1V73[12:3],,,,,,2-8[8:1],,,2>5[8:1]/5-1[8:1],,,
{12}2/5,,,8,7,6,5-8[8:1]/1-3[8:1],,,1p6[24:9]/5,,,
{12}1/4h[24:6],,,,,,{24}1,2,3,4,5,6,7,8,1,2,3,4,
{12}7<4[8:1]/5-1[8:1],,,7/5,,,8b,,5,3-8[8:1]*pp7[8:3],,,
{12}3,,,,,,3,1,4,6,8,5,
{24}1h[24:5],,,,,3h[24:5],,,,,5,,
{24}5h[24:5],,,,,7h[24:5],,,,,1,,
{12}1/7h[96:1],6h[96:1],5h[96:1],
{12}4h[96:1]/1h[96:1],2h[96:1],3h[96:1],
{12}7b,5,6,4>6[24:9],5,3,
{12}4,,,5v8[8:1]*q1[8:1],,,5,,,2h[96:1],1h[96:1],3h[96:1],
{12}8<5[8:1]/4>1[8:1],,,,,,8/4,1/5,2/6,3/7,4/8,5/1,
{12}6p2[8:1]/2p6[8:1],,,6/2,,,1v4[8:1]/5v8[8:1],,,1/5,,,
{12}3qq7[24:10],,,8,,,7pp4[24:10],,6,,5,,
{12}5,,,6,7,8,1/2h[12:3],,,8-4[8:1],7,6,
{12}5s1[8:1]*-1[8:1]/8,,,5,,,3/7,4/6,5,4/6,3/7,2/8,
{12}1w5[8:1]*w5[8:1],,,1,,,1b,,,6<1[8:1]*<1[8:1],,,
{24}6/2-6[8:1]*-6[8:1],3,4,5,,,
{12}2,,,4h[4:1],,5,5<8[8:1]*<8[8:1],,,
{24}5/1-5[8:1]*-5[8:1],2,3,4,,,
{12}1,,,3h[4:1],,4,4<7[8:1]*<7[8:1],,,
{24}4/8-4[8:1]*-4[8:1],1,2,3,,,
{12}8,,,2,4,3,6,5,8,4,6,2,1-5[8:1]*-5[8:1],3,5,1,,,3>8[8:1]*>8[8:1],,,
{24}3/7-3[8:1]*-3[8:1],6,5,4,,,
{12}7,,,5h[4:1],,4,4>1[8:1]*>1[8:1],,,
{24}4/8-4[8:1]*-4[8:1],7,6,5,,,
{12}8,,,6h[4:1],,5,5>2[8:1]*>2[8:1],,,
{24}5/1-5[8:1]*-5[8:1],8,7,6,,,
{12}1,,,7,8,5,3,1,2,7,5,8,1,4,2,5b,,7,6/8,,3,
{12}4-8[8:1]/2-5[8:1],,,,,,7/4,6/3,5/2,4pp2[24:10]*pp2[24:10]/1,5/2,6/3,
{12}7h[12:3]/4,,,,,,
{24}7b,,,4,5,4,{12}5v2[24:3]*v2[24:3],,2>7[24:6]*>7[24:6],
{12}5,,,,,,{24}4,3,2,1,8,7,6,5,4,3/5,2/6,1/7,
{12}8b-4[8:1]*-4[8:1],,,8/3-8[8:1]*-8[8:1],,,
{12}3/5-1[8:1]*-1[8:1],,,5/2-7[8:1]*-7[8:1],,,
{12}2/8b-5[12:19]*-5[12:19],,,,,,1,,4,3,,8,1,,4,2,,7,8,,,7-2[8:1]*-2[8:1],,,
{12}1b-4[12:19]*-4[12:19]/7,,,1,,,7,,5,6,,1,8,,6,7,,2,1,,,2-8[8:1]*-8[8:1],,,
{12}2b-4[8:1]*-4[8:1],,7-5[8:1]*-5[8:1],2,,7-1[8:1]*-1[8:1],2-5[8:1]*-5[8:1],,7,2,,,
{12}6b-4[8:1]*-4[8:1],,1-3[8:1]*-3[8:1],6,,1-5[8:1]*-5[8:1],6-8[8:1]*-8[8:1],,1,6,,,
{12}2b,3,4,5/1,6,7,8/4,5,6,7/3,8,1,
{4}2-7[8:1]/6-3[8:1],2>2[8:4]/6<2[8:2],,,
{4}5p1[4:15]*p1[4:15],,3h[96:1],6h[96:1],3h[96:1],6h[96:1],3h[96:1],6h[96:1],
{4}3h[96:1],6h[96:1],3h[96:1],6h[96:1],
E
