&title=Stratoliner
&artist=C-Show
&first=0
&des=Neopharmazz
&lv_5=13+
&inote_5=(175){16},,,,,,,,,,,,,,,,
2b<3[2:1]/6,,,,,,,,,,,,,,,,
E7,,,E8,,,E1,,,E2,,,E3,,,,
1bs5[2:1]/5,,,,,,,,,,,,,,,,
6,,6,,3,,3,6,,3,6,,C/B6/B7/B3/B2,,,,
8b-5q4[2:1]/4,,,,,,,,,,,,,,,,
E7,,,E6,,,E5,,,E4,,,E3,,,,
7b>7[2:1]/3,,,,,,,,,,,,,,,,
2b-4v5-7[2:1]/6,,7,,8,,1h[8:3],,,,,,,,,,
8bv6v5[4:11]*v2v3[4:11]/Cf,,,,,,,,,,,,,,,,
,,,,,,,,,,,,,,,,
,,,,,,,,,,,,,,,,
,,,,,,,,,,,,,,,,
5h[1:0],,5,,5/C,,5,,5,,5,,5/C,,5,,
4h[1:0],,4,,4/C,,4,,4,,4,,4/C,,4,,
3h[1:0],,3,,3/C,,3,,2h[1:0],,2,,2/C,,2,,
1h[1:0],,18,,72,,63,,5s1b[8:1]/4z8b[8:1],,54,,,,,,
3^6[16:3]/6,,,6^1[16:3],,,1-5[16:2],,,,B7,,B6,,,,
1,,,7/B4/E4,,,2/B5/E6,,,6/B1/E2,,,3/B8/E8,,C,,
6^3[16:3],,,3^8[16:3],,,8-4[16:2],,,,B2,,B3,,,,
8,,,65,,,34,,,12,,,78,,,,
2-7[16:3],,,7-3[16:3],,,3-8[16:2],,,,B6,,B5,,,,
4,,,6/B1/E2,,,3/B8/E8,,,7/B4/E4,,,2/B5/E6,,C,,
7-2[16:3],,,2-6[16:3],,,6-1[16:2],,,,B3,,B4,,,,
8^5[8:1],,1^4[8:1],,8,,1,,,,8,,71,,62,,
5/3^8[16:1],,,3<2[16:5],,,3,,,,3,,4-1[8:1],,5,,
4,,,E8/B7,2^5[8:1],,2/B6/E6,,,E2/B2,,,B3/E4,,C,,
1-4[16:1],,,1p6[16:5],,,1,,,,3,,4,,7,,
8v5[8:1]*V64[8:1],,,,8,,,,1v4[8:1]*V35[8:1],,,,1,,,,
4/6^1[16:1],,,6>7[16:5],,,6,,,,6,,5-8[8:1],,4,,
5,,,E2/B2,7^4[8:1],,7/B3/E4,,,E8/B7,,,B6/E6,,C,,
8-5[16:1],,,8q3[16:5],,,8,,,,6,,5,,,,
1v4[8:1],,8v5[8:1],,1,,8,,,,1,,26,,3,,
4h[8:1]/8b,,,,4h[8:1],,,,4h[8:1],,,,4h[8:1],,7,,
4h[8:1],,,,4h[8:1],,,,4h[8:1],,6,,4h[8:1],,1,,
5h[8:1],,,,5h[8:1],,,,5h[8:1],,,,5h[8:1],,2,,
5h[8:1],,,,5h[8:1],,,,5h[8:1],,3,,5h[8:1],,8,,
6,,6,,75,,6,5,6,5,6,,74,,6,5,
6,5,6,,73,,6,5,6,,72,,6,4,5,,
3,,3,,24,,3,4,3,4,3,,25,,3,4,
3,4,3,,26,,3,4,3w7[8:1],,27,,3b,,,,
6x/4-8[8:1],,,3,4,,2,,6/4-8[8:1],,3,,4,2,2,,
5/3-7[8:1],,,2,3,,1,,5/3-7[8:1],,2,,3,1,1,,
3/5-1[8:1],,,6,5,,7,,3/5-1[8:1],,6,,5,7,7,,
4/6-2[8:1],,,7,6,,8,,4/6w2[8:1],,7,,,,,,
45,,3,,3,,3,,3,,3,,3,,3,3,
4,,6,,6,,6,,6,5,7,4,8,3,1,2,
C,,,,E2,,E1,,E8,,E7,,E6,,E5,,
E4,,E3,,Chf[2:1],,,,1-5[16:1],,,,,,,,
7b^4[8:1]/3b,,,,1-7-2[4:1],,,,6,,4,,6-8-5-1-4-2-6[4:3],,,,
A6,,A8,,A5,,A1,,A4,,A2,,A6,,,,
2^5[8:1]/6,,,,8-2-7[4:1],,,,3,,5,,3-1-4-8-3[2:1],,,,
A3,,A1,,A4,,A8,,A3,,4,,53,,62,,
7-5[16:1]/1,,,7-2-4[16:5],,,7,,,,6,,5>6[4:1],,,,
1,,,,4<3[4:1],,,,8,,,,5,,,,
8/1pp1pp1[2:1],,,,5,,,,5,,,,5qq4[8:1],,6,,
7,,6pp7[8:1],,5,,4,,5w1[8:1],,,,,,,,
3-8[8:1]/5,,,,6-3-6[4:1],,,,2,,7,,2-7-2-6-2-5-2[4:3],,,,
A2,,A7,,A2,,A6,,A2,,A5,,A2,,,,
6-1[8:1]/4,,,,3-6-3[4:1],,,,7,,2,,7-2-7-4-7[4:2],,,,
A7,,A2,,A7,,A4,,A7,,5,,64,,73,,
8h[8:1]/2h[8:1],,,,8h[8:1]/3h[8:1],,,,8h[8:1]/4h[8:1],,,,8h[8:1]/3,,2,,
7h[8:1]/1h[8:1],,,,6h[8:1]/1h[8:1],,,,1h[8:1]/5,,6,,1h[8:1]/5,,7,,
4qq4qq4[2:1]/5,,,,7,,,,7,,8qq8qq8[2:1],,1,,83,,
,,3,,,,3,,3/4w8[8:1],,,,4,,,,
5b<5s1[2:3]*>5s1[2:3]/Cf,,,,,,,,,,,,,,,,
,,,,,,,,,,,,,,,,
4>4z8[2:3]*<4z8[2:3]/Cf,,,,,,,,,,,,,,,,
,,,,,,,,,,,,,,,,
45,,6,,6,,6,,6,,6,,6,,6,6,
5,,3,,3,,3,,3,,3,,3,,3,3,
4,3,5,3,4,3,6,3,4,3,7,3,4,3,8-5[8:1]*z4[8:1],3,
,,,,,,,4xV62[16:1]/7x^2[16:1],,,,,B2/D2,,,,
2b^7-3^6[2:1]/Cf,,,,,,,,,,,,,,,,
7,,,E4/B4/B3,,,E6/B6/B5,,,E2/B2/B1,,,E8/B8/B7/2x,,C,,
7-5[16:1]/1,,,7-4[16:1],D2/A2/D3,,7,,1,,8,,E2/B2/B3/7,,,,
15,,,7h[1:0],D1/A8/D8,,3h[1:0],,1,7h[1:0],,,3h[1:0]/E1/B8/B7,,5h[1:0],,
2-4[16:1]/8,,,2-5[16:1],D8/A7/D7,,2,,8,,1,,E8/B7/B6/2,,,,
84,,,2h[1:0],D1/A1/D2,,6h[1:0],,8,2h[1:0],,,6h[1:0]/E1/B1/B2,,4h[1:0],,
7-5[16:1]/1,,,7-4[16:1],D2/A2/D3,,7,,1,,8,,1,1,1,1,
1,,73,,62,,72,,8q5[8:1]/1p4[8:1],72,63,,,,,,
6b/3b-1[16:1],,,3-7[16:1],D7/A7/D8,,3,,6,,1,,D7/A7/D8/3,,4-1[8:1],,
46,,,,5-8[8:1],,5,,3,,,,D7/A7/D8/D3/A2/D2,,C,,
3/6-8[16:1],,,6-2[16:1],D3/A2/D2,,6,,3,,8,,D3/A2/D2/6,,5,,
8p3[8:1]/7q4[8:1],,,,87,,,,2p5[8:1]/1q6[8:1],,,,21,,,,
6/3-1[16:1],,,3^6[16:1],D7/A7/D8,,3,,8,,4,,D7/A7/D8/3,,1-4[8:1],,
17,,,,8-5[8:1],,8,,2,,,,D7/A7/D8/D3/A2/D2,,C,,
54,,65,,67,,65,,67,,65,,67,,6,6,
5,,43,,32,,43,,4z8b[8:1],5s1b[16:1],4,5,,,,,
6b/3b,,,,,,,,,,,,,,,,
,,,,,,,,,,,,,,,,
E
