&title=Elemental Creation
&artist=DJ TAKA meets DJ YOSHITAKA
&first=0
&des=譜面-200号
&lv_5=發狂1☆
&inote_5=(212){1},,
{8},3/4,2-5[8:1]/5,,2/1,,7<4[8:1],,3,2h[4:1],,4,3,4/5,6,5,7h[8:3],,,
6,6/7<4[8:1],,7/1,,
2,1h[4:1],,4,2,3/5,4,5,6,
7b/8b,7,5,6,3,4,2,1,
7b/8b,8,6,1,5,2,4,3,
2h[2:1]/1,,,,4h[4:1],,3h[4:1],,
{16}5,,3,4,3,,5,4,6,5,7,4,6,3,5,2,
{8}4h[4:1],3,3,5h[4:1],4,4,6h[4:1],5,5,
4/7,6,5,3-7[8:1]/4-8[8:1],,3/4,,
{8}1h[4:1],6,6,2h[4:1],7,7,3h[4:1],8,8,4,5/6h[4:1],,{16}7,6,7,6,7,6,7,6,
8h[8:5],,5,,6,,6,,
7,,7,,{16}1,8,2,1,
3h[8:7],,2,,1,,1,,8,,8,,7,,7,,
4/6,,3,4,3,,6,5,6,5,7,8,6,1,5,2,4,,4b-8[8:1]/3b,,,,2b-5[8:1],,,,1b,,8h[4:1],,,,
{8}5h[4:1],6,6,4h[4:1],5,5,3h[4:1],4,4,
5/2,3,4,6-2[8:1]/5-1[8:1],,6/5,,
{8}8h[4:1],3,3,7h[4:1],2,2,6h[4:1],1,1,5,4/3h[4:1],,{16}2,3,2,3,2,3,2,3,
1h[8:5],,4,,3,,3,,
2,,2,,{16}8,1,7,8,
6h[8:7],,7,,8,,8,,1,,1,,2,,2,,
3/5,,6,5,6,,3,4,3,4,2,1,3,8,4,7,5,6,3,6,5,6,2,6,5,6,1,6,5,6,8,6,
{8}5h[8:1],4h[8:1],3,3-6[8:1],,7,7,8,{16}1,,3,4,3,,2,4,2,,1,4,1,,8,,5/8>4[8:3],,,,,,6,,6h[2:1],,,,,,,,
5,4,3,2,8,7,6,5,2,3,4,5,1,8,7,6,
{8}3h[8:1],4h[8:1],5,5-2[8:1],,8,8,7,{16}6,,1,7,1,,2,7,2,,3,7,3,,4,,4>8[8:3]/8,,,,,,6,,6h[2:1],,,,,,,,
{8}7b,7b-3[8:1],,5b-1[8:1],,2b,2b,,
7/4,5,6,2/5,4,3,7/4,5,6,2/5,4,3,2-6[8:1]/1-5[8:1],,2/1,,4/7,6,6,2/5,3,3,4/7,6,6,4/5,3h[4:1]/6,,
{16}2,3,2,3,2,3,2,3,
{8}8h[8:5],4,3,3,2,2,{24}1,2,3,
{8}4h[8:6],7,7,6,6,5,5,3/4,2/5,1/6,{16}7,8,7,,3,1,3,2,3,4,2,5,1,6,
8,,8b-4[8:1]/7b,,,,6b-1[8:1],,,,3b,,3b,,,,
{8}2/5,4,3,7/4,5,6,2/5,4,3,7/4,5,6,7-3[8:1]/8-4[8:1],,7/8,,5/2,3,3,7/4,6,6,5/2,3,3,5/4,6h[4:1]/3,,
{16}7,6,7,6,7,6,7,6,
{8}1h[8:5],5,6,6,7,7,{24}8,7,6,{8}5h[8:6],2,2,3,3,4,4,6/5,7/4,8/3,
{16}3,1,3,,6,8,6,7,6,5,7,4,8,3,1,2,7,2,1,2,6,2,{32}8,7,6,5,4,3,2,1,8,7,6,5,4,3,2,1,
{1}8bqq5[1:7]/4bqq1[1:7],,,,,,,,
{1}2h[1:1]/5,5h[1:1],4h[1:1],7h[1:1],6h[1:1],1h[1:1],3h[1:1],5h[1:1],
{8}2,,4,,3,3/4,,7,,5,,6,,4,5,5/4,,
,7,,4,4/5,,2,,4,,3,,5,4,4/5,,
,2/4,,7,7/6,,8,,5,,6,,7/1,,2,3,3,1,,7,7/8,,6h[4:1],,5h[4:1],,4h[4:1],,3,,1,
{8}8/2,
2/8,{16}1,1,1,1,1,1,1,1,1h[8:1],,,,
{8}1/7,
7/1,{16}8,8,8,8,8,8,8,8,8h[8:1],,,,
{8}8/2,
2/8,{16}1,1,1,1,1,1,1,1,1h[8:1],,,,
{8}1/7,
7/1,{16}8,8,8,8,1b,1b,2b,2b,3b,,,,
4/6,,4/6,,5,5,5,5,4,,4,,4,4,4,4,
3,,3,,3,3,3,3,2,,2,,2,2,2,2,
{1}1pp4[2:1]/8qq5[2:1],
{8}3,3-6[8:1],,8-4[8:1],,2-7[8:1],,5,6,6-3[8:1],,1-5[8:1],,7-2[8:1],,4,
4>5[8:5],,,,4,,3,,2,{16}4,3,4,,5,3,5,4,6,5,7,4,8,3,1/2,,3,4,3,,4/7,,6,5,6,,
5/2,,3,4,3,,4/7,,6,5,6,,5/2,,2,,3/6,,3,,7/4,,6,5,6,,
5/2,,3,4,3,,4/7,,6,5,6,,5/2,,3,4,3h[8:1],,2,3,1,3,8,3,7,3,6,5,4,5,6,5,4,5,6,5,4,5,6,5,4,5,3,4,5,4,3,4,5,4,
3,4,5,4,
3,4,5,4,
2,3,7,6,1,2,8,7,2,3,7,6,3,4,6,5,2,3,4,5,8,7,6,5,1,8,7,6,5,4,3,2,
6/1,,7,8,7,,
8/3,,2,1,2,,1/6,,7,8,7,,8/3,,2,1,2,,3/8,,8,,7/2,,7,,
6/1,,7,8,7,,
8/3,,2,1,2,,1/6,,7,8,7,,8/3,,2,1,2h[8:1],,1,7,2,7,3,7,4,7,
5,6,7,6,5,6,7,6,5,6,7,6,5,6,7,6,
3,4,5,4,3,4,5,4,3,4,5,4,3,4,5,4,
1,2,5,6,2,3,6,7,3,4,7,8,4,5,8,1,4,3,2,1,7,6,5,4,2,3,2,1,2,8,2,7,
3h[8:1],,4h[8:1],,5,,5-2[8:1],,,,1,,8,,7,,6,1,6,5,6,2,6,5,6,3,6,5,6,4,6,5,7qq3[8:4],,,,,,2,,2h[4:2],,,,,,,,4,3,2,3,4,3,2,3,1,4,1,4,8,5,7,6,
{8}8bqq4[8:4],,,,,,,,2bpp5[8:4],,,,,,,,1<5[8:2],,,3,3>8[8:1],,3/4,,6,6/7-2[8:1],,6-3[8:1],,6/1,1-5[8:1],,1,7-2[8:1],,3-6[8:1],,{16}7,8,1-5[8:1],2,3,,1bw5[8:1],,,
