&title=我爱玩典韦
&artist=雷雷
&first=0.648
&des=不是本人
&lv_5=农
&inote_5=(144){4}1-5[8:1],2-8[32:3],3-7[8:1],4-6[32:3],
1-5[8:1],2-8[32:3],3-7[8:1],4-6[32:3],
{32}7q3>7[8:3],D8,A8,D1,A1,D2,A2,D3,{8}A3,5x,{4}5x-1[8:1],,
{32}7q3>7[8:3],D8,A8,D1,A1,D2,A2,D3,{8}A3,5x,{4}5x-1[8:1],,
2-8[32:3]/6-4[32:3],26,1v3[8:1]/5v7[8:1],15,
2-8[32:3]/6-4[32:3],26,1v3[8:1]/5v7[8:1],15,
{32}2p6<2[8:3],D2,A1,D1,A8,D8,A7,D7,{8}A6,4x,{4}4x-8[8:1],,
{32}2p6<2[8:3],D2,A1,D1,A8,D8,A7,D7,{4}A6,{8}4,4,4h[16:1],4h[16:1],
2V46[8:1]*>6[8:1],6V82[8:1]*<2[8:1],,,,8,1h[8:1]/7h[8:1],,3h[8:1]/5h[8:1],,7-5[32:3]/1,1-3[32:3]*-3[32:3]/7,,,A5/A4/E54,,7h[8:1]/6h[8:1],,2h[8:1]/3h[8:1],,7v6>5[8:1]/2v3<4[8:1],72,E3`E7`E8/B8/B1/E2/E1/A8/A1/D2/D8/D1,,A5/E5/A4,,3h[8:1]/4,8,5/7h[8:1],3,1h[8:1]/5h[8:1],,2>5[8:1],4<7[8:1],6<1[8:1],8>3[8
:1],,C,4h[16:1],4h[16:1],35,3h[8:1]/5h[8:1],,4q4[32:7]*p4[32:7]/8,,,,,3h[8:1]/5h[8:1],,6pp5[8:2]/5qq6[8:2],65,,,,7>8-2>3[8:1],5-1qq7[16:5]/3v4[8:1],
,,,,,34,34,34
{8}
3h[8:1]/4h[8:1],,78,7/8<3[32:7]*p3[32:7],,,,,28,2-4<5[8:1]/8-5[8:1],,A8/A1/A2/E1/E2/D1/D2,,,B1/C/B5/E5/E6/A6/A4/B7/B3/E2/E1/A2/A8,,5-7[8:1],5-3[8:1],5-8[8:1],5x-2[8:1],5x-1s5<4b[8:5],5x,5x,,,,,,,,34,34,
3h[8:1]/4h[8:1],,78,7/8<3[32:7]*p3[32:7],,,,,28,2-4<5[8:1]/8-5[8:1],,A8/A1/A2/E1/E2/D1/D2,,,B1/C/B5/E5/E6/A6/A4/B7/B3/E2/E1/A2/A8,,4-2[8:1],4-6[8:1],4-1[8:1],4x-7[8:1],4x-8z4>5b[8:5],4x,4x,,,,,,3,24,6,57,
1-4[8:1]/8-5[8:1],,,,7v6>5[8:1]/2v3<4[8:1],72,E3f`E7`E8/B8/B1/E2/E1/A8/A1/D2/D8/D1,,1xpp1[32:7],,B2/B3,,8-4[8:1],2-6[8:1],8,2,5<3[8:2],,B6/B7,,1x-4b[8:1],8x-5b[8:1],E2/B2/E3/B3/B4/B1/C/E5,B8/E7/B7/E8/C/B6/B5/E5,2-6b[8:1],,B1/B2/E2/E3/B3/E1/E4/A3/A1/A2/D2/D3,,{48}1bx/8bx,2x/7x,3x/6x,4x/5x,,,{8},{48}1
bx/8bx,2x/7x,3x/6x,4x/5x,,,{8},
{48}1b/8b,2x/7x,3x/6x,4x/5x,,,{8},{48}1b/8b,2x/7x,3x/6x,4x/5x,,,{8},{48}1b/8b,2x/7x,3x/6x,4x/5x,,,{8},{48}1b/8b,2bx/7bx,3x/6x,4x/5x,,,{8},{48}1b/8b,2bx/7bx,3bx/6bx,4x/5x,,,{8},{48}1b/8b,2bx/7bx,3bx/6bx,4bx/5bx,,,{8},A1/A8/D1/D2/D8/E2/E1/E8/B1/B8/B2/B7/A2/A7/E7/E3/Cf/D3/D7/B6/B3/B5/B4/E4/E6/A3/A6/E5/
D6/A5/A4/D5/D4,,1x-5[8:1],7x-3[8:1],1,7,4qq4pp5[8:3],4,8,8,8,7x>3v5b[8:3],,,,,,46,2h[8:1]/8h[8:1],,B1/Cf/B5/E5/E6/A6/A4/B7/B3/E2/E1/A2/A8,
