&title=BLACK or WHITE?
&artist=BlackYooh vs. Siromaru
&first=2.01
&des=中翠樓屋
&wholebpm=185
&des_5=中翠樓屋
&lv_5=14
&inote_5=(185)
{16}4b,5,4,5,4,3,2,1,
4,3,4,3,4,5,6,7,
1b,8,1,8,1,2,3,4,
6,5,6,5,6,7,8,1,
{16}3b,4,3,4,2,6,2,6,
4,5,4,5,3,6,3,6,
5b,6,5,6,3,7,3,7,
2,7,2,7,1,8,2,7,
{4}3-8[8:1],34,6qq4[8:1],65,
{4}1s5[8:1],15,8z4[8:1],84,
{8}
3h[16:1]/5h[16:1],3h[16:1]/5h[16:1],4h[16:1]/6h[16:1],4h[16:1]/6h[16:1],
3h[16:1]/7h[16:1],3h[16:1]/7h[16:1],2h[16:1]/8h[16:1],2h[16:1]/8h[16:1],
{4},
{16}
1,1,1,1,1w5[8:1],1,1,1,
1b,,,,3b/7b,,
{16}
2,4,2,,7,5,7,,
2,4,3,,7,5,6,,
{16}
3,4,3,,6,5,7,,
3,4,2,5,1,6,78,,
{16}
8,1,7,,1,8,2,,
7,7,8,,1,1,8,,
{16}
1,2,3,,7,6,5,4,
3,2,1,8,7b/3b,,4h[4:1],,
{16}
,,5b,,1/8h[8:1],2,3,,
2/7h[8:1],3,4,,8/1h[8:1],7,6,,
7/2h[8:1],6,5,,8,1,7,,
8,8,8,8,8,8,8b,,
{16}
7,5,7,5,7,5,7,,
3,5,3,5,3,,
{8}2h[12:1]/5h[12:1],2h[12:1]/5h[12:1],2h[12:1]/5h[12:1],
3V17[8:1]/4V28[8:1],8V64[8:1]/7V53[8:1],,,,
{16}
1<6[8:1],,6,,1h[6:1],,,,
2v5[8:1],,5,,2,,,,
{4}
1-5[8:1]/8-4[8:1],18,8-5[8:1]/3-6[8:1],83,
{16}
8>3[8:1],,3,,8h[6:1],,,,
7v4[8:1],,4,,7,,,,
{4}
1-5[8:1]/8-4[8:1],18,
{12}
1h,5,7h,2,4h,8,
{4}5h,5,45,35,
4h[8:1]/6h[8:1],4h[8:1]/2h[8:1],4h[8:1]/7h[8:1],4h[8:1]/1h[8:1],
2h[8:1]/3h[8:1],2h[8:1]/4h[8:1],2h[8:1]/5h[8:1],2h[8:1]/6h[8:1],
{16}6,2,6,2,6,2,6,2,
{32}6,7,8,1,2,3,4,5,
6/8,1,2,3,4,5,6,7,
{12}
8,1,2,3,4,5,
6/2,1,8,7,6,5,
4/8,7,6,5,4,3,
2,3,4,5,6,7,
{4}8,1,2,3,{2}4,5b,
{8}5h[2:1],4,3,4,2h[2:1],8,7,8,
6h[2:1],4,3,2,1-5[8:1],8,7,6,
{8}4h[2:1],5,6,5,7h[2:1],1,2,1,
3h[2:1],5,6,7,8-5[8:1],1,2,3,
{16}4b,5,4,5,3,5,4,5,
2,5,3,5,1,5,3,5,
1b,2,3,4,8,1,2,3,7,8,1,2,
{24}5,6,7,8,1,2,
{16}8b,7,8,7,1,7,1,7,
1,8,1,8,2,8,2,8,
1b,2,3,4,2,3,4,5,3,4,5,6,
{24}7,8,1,2,3,4,
{16}5b,4,5,4,6,4,5,4,
7,4,6,4,8,4,6,4,
8b,7,6,5,1,8,7,6,2,1,8,7,
{24}4,3,2,1,8,7,
{16}5b,3,5,3,6,4,6,4,
7,2,7,2,6,3,6,3,
{8}45,45,36,{16}4,5,4-8[8:1],5,4,,2b,,,,
{16}1-7[8:1],,6,4,1-3[8:1],,3,5,
1-6[8:1],,7,4,1-5[8:1],,3,5,
1b>3[8:1],,8,8,1b-4[8:1],,7,7,
1b-5[8:1],,8,8,1b,,,,
27,,3,4,2,,6,5,
7,,3,4,1,,6,5,
{4}8b-3[8:1],2b-5[8:1]/8,6b-2[8:1]/2,3b/6,
{16}8-2[8:1],,3,5,8-6[8:1],,6,4,
8-3[8:1],,2,5,8-4[8:1],,6,4,
8b<6[8:1],,1,1,8b-5[8:1],,1,1,
8b-4[8:1],,1,1,8b,,,,
72,,6,5,7,,3,4,
2,,7,5,8,,2,4,
{4}1b-6[8:1],7b-4[8:1]/1,3b-8[8:1]/7,6b/3,
{16}72,,3,5,3,,6,4,6,,2,4,2,,7,4,
{4}7<4[8:3],5>2[8:3],3>8[8:3],1<6[8:3],
{24}6,5,4,3,2,1,
{8}8b,2b,4b,6b,1b,,
{30}46,,,,,
{30}24,,,,,,35,,,,,,
{30}57,,,,,48,,,,,
{30},,,
{8}5b,5b,
{32}1,2,3,4,1,8,7,6,
{8}4b,4b,
{32}8,7,6,5,8,1,2,3,
{8}6b,6b,
{32}2,3,4,5,2,1,8,7,
{8}3b,3b,
{32}7,6,5,4,7,8,1,2,
{4}8h[4:1],
{32}1,2,3,4,7,6,5,4,
8,7,6,5,1b,,,,
{8}8h[4:1],1h[8:1],,,3b/6b,,
{32}2,3,4,5,7,6,5,4,1,2,3,4,8,7,6,5,
{1}1b,,,,,
{4}65,45,34,45,
8h[8:1]/2h[8:1],1h[8:1]/7h[8:1],8h[8:1]/3h[8:1],1h[8:1]/6h[8:1],
{8}3h[16:1]/5h[16:1],3h[16:1]/5h[16:1],4h[16:1]/6h[16:1],4h[16:1]/6h[16:1],
3h[16:1]/7h[16:1],3h[16:1]/7h[16:1],2h[16:1]/8h[16:1],2h[16:1]/8h[16:1],
1bv6[8:1],6,1h[6:1],,7bv4[8:1],4,7,,
{4}7-2[8:1],3-6[8:1]/7,8-5[8:1]/3,8,
{8}8bv3[8:1],3,8h[6:1],,2bv5[8:1],5,2,,
{4}8-5[8:1]/4-1[8:1],8/4,
{12}2,4,3,7,5,6,
{16}4b,3,2,1,5,6,7,8,
2b,3,4,5,7,6,5,4,
1b,8,7,6,8,1,2,3,
1b,2,3,4,2,3,4,5,
4b,5,4,5,4,6,4,6,
4b,7,4,7,4,8,4,8,
{8}4-2[8:1],4-6[8:1],4-8[8:1],4,,,
{16}1,28,37,46,5w1[8:1],,,,
{8}5b,,
{16}3h[8:1],,8,2h[8:1],,7,1h[8:1],,
6h[8:1],,1,7h[8:1],,8h[16:3],,,
6h[8:1],,1,7h[16:3],,,2,,
3,5,3,5,2,6,2,6,
4,6,4,6,3,7,3,7,
{12}3h,5,7h,3,1h,6,3h,1,6h,8,4h,5,
{4}2h[4:1],
{8}1q5[8:1],8,17,,46,57,
{16}8b,7,6,1b,8,7,2b,1,8,7,6,5,8,1,2,3,
{8}4h[4:1],,8,37,2v7[8:1]/6v3[8:1],,26,,
68,7,13,2,
{30}1h[30:3]/5h[30:3],,,,,2h[30:4]/6h[30:4],,,,,,37,,,,
{16}4v2[8:1]/8v6[8:1],,,,48,,,5,
{8}1h[8:3],2,3,4,
{16}1v3[8:1]/5v7[8:1],,,,15,,,4,
{8}8h[8:3],7,6,5,
{24}7b-4[8:1],8,1,2,3,4,
{4}7b,
{24}2b-5[8:1],1,8,7,6,5,
{4}2b,
{8}4b/8b,48,
{24}48,37,26,15,,,
{8}4b/8b,48,
{24}48,15,26,37,,,
{8}4h[8:3]/5b,6,7,8h[2:1],
5b,6,7,1h[2:1],
2b,3,4,5h[2:1],
8b,7,6,4,
{16}2,3,4,5,8,7,6,5,
1,2,3,4,7,6,5,4,
{24}1,2,3,7,6,5,
2,3,4,8,7,6,
{16}3,6,2,7,
{24}1,8,1,8,1,8,1s5[8:1]*<1[2:6],,,,,,
{1}1b/8b,
E
