&title=girls.exe
&artist=rintaro soma
&first=0
&des=Marginer vs dgve
&des_5=
&lv_5=14+
&inote_5=(94){4},,,,{1}E8/B7/B8/1x-3-5-7<6-4-2-8[4:5]*-3-5-7<6-4-2-8[4:5],
{4},,,{16},,,{32},{64}7x,6x,
{1}B1/B2/E2/5x-3-1-7>8-2-4b[4:5],
{8},,,,,,,,3V17>2[2:1],
3/5,{4}5h[4:1],{8},5,{4}5h[8:1],
{8}6<1-7-5[2:1],6/4,{4}4h[4:1],{8},3,{4}3h[8:1],
{16}2h[32:1],2h[32:1],1h[32:1],1h[32:1],2h[32:1]/8h[32:1],2h[32:1]/8h[32:1],7h[32:1]/3h[32:1],7h[32:1]/3h[32:1],6h[32:1],6h[32:1],5h[32:1],5h[32:1],6h[32:1]/4h[32:1],4h[32:1]/6h[32:1],7h[32:1]/3h[32:1],7h[32:1]/3h[32:1],
{48}8,7,6,5,4,3,2,1,8,7,6,5,4/8,1,2,3,4,5,6,7,8,1,2,3,{4}4/Ch[2:1],{32}D4/E4/A4,A3,D3,A2,D2,A1,D1,A8,
(188){1}D8/E8/A7f,
{8},,,2/8,{16}1,1,1,1,1,1,1,1,
{4}1-5[8:1],1b/7b,{8}6/4,{16}7,5,{8}7,6/4,
{16}3,5,{8}3,6/4,{16}7-5[8:1],1,{8}7,7,{4}C,
5/2-4[8:1]*-6[8:1],2b,{16}7,5,{8}7,4/6,{16}2,4,
{8}2,3/5,{16}6,4,7,5,{8}8,2h[4:1],,,{4}2/8<5[8:1],
{16}4b,3,2,1,{4}8-4[8:1],8/7,
{16}6,4,6,4,6,5,6,5,7,4,7,4,8,3,8,3,
{24}7x,6,5,3x,2,1,7x,6,5,3x,2,1,6x,5,4,2x,1,8,6x,5,4,2x,1,8h[24:25],
{48},,,{16}E7/B6,,,B2/E3,,,B4/E5,,,{8}B8/E1,{16},C,,,,,{8}7b/1b-5[8:1],
2b/6b,5,{16},,6,5,7,4,8,3,
7,6,5,4,{24}1,2,3,6,{48},{16}6,{24}2,3,4,7,{48},{16}7,2,5,2,5,
1q5[8:1],6,8,7,{8}1b,6,6-1[8:1],2,3,4,
{24}3,2,1,8,7,6,3,2,1,8,7,6,3,2,1,8,7,6,{4}C,
7b/4b>1[8:1],6,{12}7,8,7,2,1,2,
{48}2b/E7/B7,B6,B5,E5,,,,,,,,,{8}3/8,{16}7,4,6,5,{8}6,{16}2,5,3,4,
{4}3>8[8:1]*-5[8:1],3b,{32}6,5,4,3,2,1,8,7,6,5,4,3,2,1,8,7,
{2}6h[4:1]/C,{16}2/8,2/8,,,7/1,7/1,,,{8}6b-1[8:1],
5,4,3-8[8:1],4,5,6<7-1[8:1],5,
4,3>2-8[8:1],4,5,{4}6<1[8:1],2>5[8:1],
{8}7b-4[8:1],8,1,2-5[8:1],1,8,7<6-4[8:1],8,
1,2>3-5[8:1],1,8,{4}7<4[8:1],3>8[8:1],
{8}6b-1[8:1],5,4,3-6[8:1],2,1,8-3[8:1],7,
6,5-8[8:1],4,3,{4}2-5[8:1],6-1[8:1],
{8}3b-8[8:1],4,5,6-3[8:1],7,8,1-6[8:1],2,
3,4-1[8:1],5,6,{4}7-4[8:1],{32}7b/E3/B3,B2,B1,E1,,,,,{8}5b/2b,
{16}3,4,{8}3,3/6,{16}4,5,{8}4,7/4,{16}6,5,
{8}6,6/3,{16}5,4,{8}5,{4}2/5-3[8:1]*<8[8:1],5,
{8}4b/7b,{16}6,5,{8}6,6/3,{16}5,4,{8}5,2/5,{16}3,4,
{8}3,3/6,{16}4,5,{8}4,{4}7/4-6[8:1]*>1[8:1],4,
{16}7b,8,7,8,6,1,6,1,5,2,5,2,5,3,5,3,
6,4,6,4,7,3,7,3,8,2,8,2,1,2,1,2,
8,7,6,5,4/8,1,2,3,4/1,8,7,6,5/1,2,3,4,
{1}5bw1[2:1]b,
{16}3b,5,3,5,2,6,2,6,1,2,7,6,2,3,6,5,
2b,8,2,8,3,7,3,7,{8}4/6,5,6/4,3,
{16}7b,8,7,8,6,1,6,1,5,4,2,3,6,5,1,2,
7b,4,7,4,6,3,6,3,{8}5/2,4,1/6,7,
{16}2b,3,4,5,1b,2,3,4,8b,6,8,6,1b,5,1,5,
{8}2b-5[8:1],3,2/5,,7b>2[8:1],6,{4}7/4,
{16}3b,1,3,1,4b,8,4,8,5b,4,3,2,5b,6,7,8,
{8}1/2,2/1,{24}8,7,6,2,3,4,{4}5/1-5[12:1]*-6[12:1],A1f,
{16}8b,2,8,2,7,3,7,3,6,7,8,1,4,3,2,1,
5b,2,5,2,6,4,6,4,{8}7/5,8,4/2,1,
{16}7b/8,6,5,4,3/1b,4,5,6,1b/7,2,3,4,5/8b,4,3,2,
{32}1/A7/D7/E7,A6,D6,A5,D5,A4,D4,A3,D3,A2,D2,A1,D1,A8,D8,A7,{4}C/D7/E7/A6f,7/1,
{32}2b/8hx[8:1],3,{16}4,{32},,2b/8hx[8:1],3,{8}4,{24}3b/8hx[16:1],4,5,6,7,8,1,{96},,,,,,,,{32}7b/2hx[8:1],6,{16}5,{32},,7b/2hx[8:1],6,
{8}5,{24}6b/2hx[16:1],5,4,3-8[8:1],2,1,8-4[8:1],,,{2}3x/7x,
{32}8b/2b,3,{16}4,{32},,7b/1b,6,{8}5,{32}2b/8hb[16:1],3,{16}4,{32},,7b/1hb[16:1],6,{8}5,2/8,3-8[8:1]/7-4[8:1],
{2}3b/7b,{24}1,5,1,5,1,5,1,5,1,5,1,5,
(141){1}1bs5>1[8:11]*s5<1b[8:11],
,(211.5)1h[4:1]/6z2b[4:3],
,2h[4:1]/6z2b[4:3],
,3h[4:1]/6z2b[4:3],
,4h[4:1]/6z2b[4:3],
{4},,,,5/6z2b[4:3],
5/6,,,,,,,6z2b[4:3]`7s3s7[2:3],
6/7,,,,,,,{1}8-4b[400:49],
,1pp5[2:3],
{2},5pp1[2:3]*pp1[2:3],
{1}5h[1:1],
{8},,,5,{4}4w8[8:1]b,4b,
{8}2-4[8:1],{16}8,8,{8}2,7v4[8:1],3>1[8:1],7,3,{16}5,5,
{8}8-3[8:1],,8/5-8[8:1],,25,3,4,5/3,
4,5,4/7,6,3,2/5,{16}3,4,{8}3,
6/2>5[8:1],5-1-3[16:5],6,{16}6,7,{2}8h[4:1],
{4}7/2-6[8:1],{8}26,{16}7,8,{8}1-5[8:1],{16}5,4,{4}1/3>8b[8:1],
{8}3/6-3[8:1],6,7-2[8:1],7,{16}4,5,6,7,8/3,1,2,3,
{4}4/8b-3[8:1],8b/4-8[8:1],{8}4b/2,2v5[8:1],{32},,,,2b/1,8,7,6,
,,,,,,,,{8}5/6,3/4h[32:11],{32}E3/B3,E4,E5,E6,E7,E8,E1,E2,{4}E3/B3,
{8}5/1,5/1,2/6,2/6,{16}2,3,4,5,1,2,3,4,
8,1,2,3,4/8,7,6,5,4/1,2,3,4,5/1,8,7,6,
5,1,5,8,5,7,5,6,5,4,6,3,7,2,8,1,
{8}7-3[8:1],3V51[8:3],{4}7,{16}1<7-3[8:3],2,{8}3,{16}2,3,{8}4w8b[8:5],
{16},,,,,,,,,,,,,,,,3,
6,3,6,2,7,2,7,{8}1-5b[8:1],2/8,{4}1b,
{16}6/4p6[4:1],3,2,1,8/4,1,2,3,{4}4,{16}4/5,6,7,8,
2/1p3b[4:1],8,7,6,{4}5/1,{8}7-4[8:1],7,3b,2,
1>4[8:1],8,7/1,6<8[8:1],5,4/6,3,2,
{16}1,2,3,4,8,7,6,5,4/1,8,7,6,5/E7/B7/E8,4,3,2,
{8}1,7,{16}2,6,5,6,2,5,4,5,1,2,3,4,
1,8,7,6,2,1,8,7,6/2-6b[8:1],1/5,8/4,3/7,{4}2/6,
{16}8b,5,8,5,8,5,8,5,7b,4,7,4,7,4
,7,4,
5b,2,5,2,5,2,5,2,4b,1,4,1,4,1,4,1,
{16}6b,5,2,3,6b,5,2,3,7b,6,3,4,7b,6,3,4,
{24}8b,7,6,2b,3,4,7b,6,5,1b,2,3,6b,5,4,8b,1,2,{4}3/5,
{16}7b/4b,,6,5,6,5,6,,2,4,2,4,2,,25,,1-5[8:1]/6,,2,,6-1[8:1]/1,,7,,6>3[8:1]/4-8[8:1],,,,64,,,,
{24}1b,2,3,4,,,1b/7b,6,5,4h[4:1],,,8bv3[8:1],,,,,,,,,4b-7[8:1],,,{16},,43,2,1,8,
{24}4,5,6,7,8,1,2,3,4,5bxw1[4:3]/B2/E3/E2,,,,,,,
,,,,,,,,,,,,,,,,,,,,,,,
{2}C,
{24}1/5,2,3,4,5,6,7-3[8:1]b,8,1,2,3,4,
{4}5/7b,2,{8}2/8,{16}3,4,{8}5,7/1,
{16}6<1[8:1],5,{8}4,6,2v5[8:1],3,2
,{4}1-6[8:1],
1b/5b,4,{12}7,5,6,2,4,3,
{16}8,1,7,2,6,3,5,4,6,3,7,2,{4}1-5-3[4:1]b/8,
1b/8b,{8}7-3[8:1],6,{4}7/5,{16}2,4,2,4,
{8}3h[8:1],{16}1,2h[8:1],,8,{8}1h[8:1],{16}7,6,5,4,{4}3/8h[4:1],
{16}4b,5,6,7,8/2b,3,4,5,{24}6/1b,8,7,6,1,2
,3,4,1,8,7,6,
5/1x,8,7,6,5,4,3/7,2/6,1/5,8/4h[8:5],{96},,,,,,,,{32}B7,B6,B5,B4,B3,B2,B1,B8,E7/D7/A6,E6/D6/A5,E5/D5,E4/D4/A3,E3/D3/A2,E2/D2/A1,E1/D1/A8,E8/D8/A7,
{1}6x>8-5-2[0.5674##2.8369]*-1-4<2[0.5674##2.8369]b,
,,{4},,,{16},,{24}A6,
E6,A4,
E5,E7,B6,E4,B4,E8,B8,E3,B2,A8,E1,A2,{2}E2/C,
E
