&title=カフカなる群青へ
&artist=幽閉サテライト
&des=えども~ん
&lv_5=11+
&inote_5=
(138){1},
{8}2,5,3,6,4,7,{4}5>6[8:5],{8}3h[4:1],,,3h[4:1],,,2,,5,2,6,1,7h[4:1],,8,8pp3[8:5]*qq5[8:5],,,,,,,,,
{8}7,4,6,3,5,2,{4}4<3[8:5],{8}6h[4:1],,,6h[4:1],,,7,,2,1,3,8,4h[4:1],,5,5pp8[8:5]*qq2[8:5],,,,,,,,,
{1}7^4[2:1],5w1[8:5],
{8}64,5,6,17,3,4,2^5[7:1]/8,,8^5[7:1],,1,1q5[8:1],,7,
{8}7,,46,5,4,37,4,3,2>1[8:6]/8,8/2h[8:7],{4},,,,
{8}35,4,3,82,6,5,7^4[7:1]/1,,1^4[7:1],,8,8p4[8:1],,2,
{8}2,,53,4,5,62,5,6,71,7^4[6:1]/1^4[6:1],{4},,{16}3,4,2,5,1,6,8,7,
{4}1bq5[4:1]/6,5^8[4:1],8q4[4:1],4<2[8:3],6h[4:1],,{8}5,4,6,3,
{4}7^4[4:1]/1,4p8[4:1],8^5[4:1],5p2[8:3],3h[4:1],,{8}4,5,1,8,
{4}2-6[8:1]/7,6-2[8:1],2^5[5:1],6pp3[8:3],6,,
{4}21,47,2h[8:1]/6h[8:1],4h[8:1]/8h[8:1],3h[8:1]/7h[8:1],1h[8:1]/5h[8:1],4-7[8:1]/8-3[8:1],48,56,38,
{8}17,{16}6,5,{8}6,3,28,{16}3,4,{8}3,7,{4}1pp4[3:1]/8qq5[3:1],,,36,{8}18,81,27,72,63,63,45,54,
{16}5,4,5,4,6,3,6,3,5,4,6,3,7,2,8,1,
{4}7b-4[8:1],78,2-6[8:1],{8}21,8,{4}8-5[8:1]*-3[8:1],8,{8}34,2,56,7,
{4}8-4[8:1]/3-1[8:1],38,8-4[8:1]/5-7[8:1],8/5>8[4:1],85,7>3[5:1],67,
{8}6,4,{4}2-5[8:1],25,7-3[8:1]/8,{8}73,2,{4}1-5[8:1],1/8-4[8:1],8/7qq3[3:1],37,
{8}2-5[8:1],,1,8p4[6:1],,4,3,,{16}2,1,2,1,3,8,3,8,2,1,3,8,4,7,5,6,
{8}4b>8[6:1],,74,6,5<1[6:1],,25,3,{4}4^1[4:1],1v7[4:1],7^4[6:1],8-4[8:1],8,{8}3,42,,7,68,,
{4}1q5[8:1]/5q1[8:1],1^6[8:1]/5^2[8:1],,
{8}4V27[4:1],1-5[8:1],{2}1,2-7[8:1]*^5[8:1],{4}2b-4[8:1]*-7[8:1],2b,1b-5[8:1],1b,
{4}6bV83[4:1]/5h[2:1],,,12,{16}8,1,8,1,7,2,7,2,8,1,7,2,6,,45,,
{8}6bpp3[4:3]/3,,,4,,,3,,2bqq7[4:3],,4,,5,,5,,{1}6bV83[4:5],,
{8}6,5,4,5,4,3,2h[1:1],,1,,,8,,,7,,6,5,7,4,8h[4:5],,2,2qq6[8:5],,,,,,,,,
{8}3,4,5,4,5,6,7h[1:1],,8,,,1,,,2,,{7.1}3,4,{7.2}2,5,{3.8}1,{3.84}8,8pp4[4:8],{1},,
&amsg_time=
&amsg_content=EC~R@SO4
