&title=無意識レクイエム (cosmobsp rmx)
&artist=cosMo@暴走P(original arranged by 森羅万象)
&first=0.033
&lv_5=14
&des=Matikane
&inote_5=(230){4},,,,,,,,{1}2h[8:11],
{8}3,,,3h[8:5],,,,,{1}4h[8:11],
{8}5,,,5s1[4:1],,,,,2h[8:11],
,,1,,,,,3,
,,3h[8:5],,,{4}4,
{8}4h[8:11],,,3,,,,,5,
,,5s1[16:3]*s1[16:3],,,,,2-5[8:1],
2,8-4[8:1],8,{4}3h[8:1],6h[4:1],
{8}5-1[8:1],5,7-4[8:1],7,2-6[8:1],2,{4}8h[4:1],
{8}4-1[8:1],4,6-2[8:1],6,{4}3h[8:1],8h[4:1],
{8}4,4qq8[8:3],7-5[4:1],4,,,,,1-4[8:1],
1,7-3[8:1],7,{4}2h[8:1],5h[4:1],
{8}4-8[8:1],4,6-3[8:1],6,1-5[8:1],1,{4}6h[4:1],
{8}4h[4:1],7,7h[4:1],2,2h[4:1],4,4h[8:1],8h[8:1],
{16},,5/1V72[16:5],2/6,{4}3b/7b-4[16:3]*-4[16:3],,,{1}1h[4:7]/4h[2:1],
{2}3,{4}2,8,
{1}7h[4:7]/1h[2:1],
{2}8,{4}6,{16}5,4,3,2,
{4}7b/1h[4:7],7h[4:1],,,{2}8,
{4}2,3,
{1}1q6[8:9]/4p1[8:9],
{8},,,,,8,7,8,
6/1-5[8:1],1,7-4[8:1],7,{4}3h[4:1],2>7[4:3],
{8}3,2,1,1,2-5[8:1],2,,,8-4[8:1],
8,2-5[8:1],2,{4}7h[4:1],6<3[4:3],
{8}7,6,5,5,6-1[8:1],6,,,3-6[8:1],
3,8-4[8:1],8,{4}2h[4:1],3>6[4:3],
{8}2,3,4,4,3-8[8:1],3,,,7h[4:1],
2,2h[4:1],6,6h[4:1],1,1h[8:1],5h[8:1],
{16},,2/6V42[4:1],3/7,{4}8b/4b-8[8:1]*-8[8:1],,,6/2h[2:1],
6h[2:1],,1,
7/3h[2:1],6h[2:1],,2,
6/4h[4:1],6h[2:1],3,5,
7/4,5/6h[2:1],{2}7h[4:1],
{4}6/1h[2:1],6h[2:1],,2,
7/3h[2:1],6h[2:1],,4,
5/7b>3[2:1],5,5,5,
5/3b>7[2:1],5,5,{8}5,6,
{4}4h[4:1],2,{16}1/4,3/8,2/7,1/6,8,7,6,5,
{4}4h[8:1]/8h[8:1],7h[8:1]/3h[8:1],{8}6/2,2/6,{16}1,2,5/3h[8:1],6,
{8}7,3h[8:1],1,3h[8:1],7,3h[8:1],5,3h[8:1],
7,3h[8:1],1,3h[8:1],7,3h[8:1],5,3h[8:1],
{16}5,4,3,2,1,8,7,6,{32}1,2,3,4,5,6,7,8,1s5[0.7774##0.1957]*s5[0.7774##0.1957],2,3,4,5,6,7,8,
{1}1h[2:1],
{8}1-4[8:1],1,7-3[8:1],7,{4}2h[4:1],1-5[8:1],
8-4[8:1]`1-3[8:1],1-5[8:1]/8V62[16:5],{8}8`1,,,4h[4:1],
,,1-5[8:1],1,3-6[8:1],3,{4}8-6[8:1],
1-3[8:1]`8-4[8:1],8-6[8:1]/1pp5[8:3],{2}1`8,
{8}8-5[8:1],8,2-6[8:1],2,7-3[8:1],7,{4}8-4[8:1],
1-5[8:1]`8-6[8:1],8-4[8:1]/1V37[16:5],{2}1`8,
{8}6-3[8:1],6,8-4[8:1],8,1-5[8:1],1,{4}3-1[8:1],
3-5[8:1]`6-8[8:1],6V84[8:1]/3V52[8:1],,1b,
6-1[8:1]/2-5[8:1],6/2<4[8:3],2,{8}3,2,
{4}1>4[8:1],1<6[8:1],1,{16}1,8,7,6,
{4}5-2[8:1]/1-6[8:1],1<3[8:3],1,{8}2,1,
{4}8<5[8:1],8>3[8:1],8,{16}5,6,7,8,
{4}1-6[8:1]/5-2[8:1],1<3[8:3],1,{8}2,1,
{4}8<5[8:1],{24}1,2,3,4,,,{4}1>4[8:1],{24}8,7,6,5h[8:3],{48},,,,,,,,,,{16}7,
8,1,2,3,4,{4}5-2[8:1]/1-6[8:1],1/5,
{16}1,8,7,6,5/1,4/8,3/7,2/6,{2}1/5h[4:1],
{4}6-1[8:1]/2-5[8:1],6/2<4[8:3],2,{8}3,2,
{4}1>4[8:1],1<6[8:1],1,{16}1,8,7,6,
{4}5-2[8:1]/1-6[8:1],1<3[8:3],1,{8}2,1,
{4}8<5[8:1],8>3[8:1],8,{16}5,6,7,8,
{4}1-6[8:1]/5-2[8:1],1<3[8:3],1,{8}2,1,
{4}8<5[8:1],8>3[8:1],8,{16}5,6,7,8,
{4}1-6[8:1]/5-2[8:1],1<3[8:3],1,{8}2,1,
{4}8-4[8:1],8V26[2:1],,,{2}8V24[2:1],
4V61[2:1],
1V35[2:1],5q1[4:1],
{1}3h[8:15],
{12},,,,,,,,,,,,1,
8,7,2,1,8,3,2,1,4,3,2,
5,4,3,6,5,4,7,6,5,4b/8h[4:1],,,1,
2,3,4/8,1,2,3/7,8,1,2/6,7,8,
1/5,6,7,8/4,5,6,3/7,4,5,2/6,3,4,
{1}5b/1h[1:1],
,2h[6:7],
,5,
5,
5,
5,
5,
5,
{24}5/1,2,3,4h[8:3],{4},,,{16},{48},{24}4/8,
7,6,5h[8:3],{4},,,{16},{48},{24}5/1,
2,3,4h[8:3],{4},,,{16},{48},{24}4/8,
7,6,5h[8:3],{4},,,{16},{48},{24}5/1,
2,3,4h[8:1],,,,,,,,,4/8,7,6,5h[8:1],,,,,,,,,5/1,
2,3,4h[8:1],,,,,,,,,4/8,7,6,5h[8:1],,,,,,,,,1,
2,3,4h[8:1],,,8,1,2,3h[8:1],,,7,8,1,2h[8:1],,,6,7,8,1h[8:5],{48},,,,{16}5h[2:1],
,,,,,,,,4/8,3/7,2/6,5/1,8,7,6,
{8}5/1-5[8:1],1,,3-7[8:1],{4}3,{8}8-4[8:1],8,
,5-2[8:1],5,6bs2[6:7]*s2[6:7],,,,,,,,,,,,,{1}2h[4:9],
{4},,,,,,,8h[4:1],
{8}2-5[8:1],2,8-4[8:1],8,2-8[8:1],2,6-1[4:1],6,
{4}1V74[4:1],4v6[4:1],{8}1h[6:1],,,2h[4:1],
,,7-3[8:1],7,1-4[8:1],1,6-1[4:1],6,
{4}1V74[4:1],4-8[4:1],{2}2h[4:1],
{4}7h[4:1],{8}2-5[8:1],2,6-1[8:1],6,3-7[4:1],3,
7V15[4:1],6,{4}5V38[8:3],{2}6-3[8:1],
{16}1/5,2,3,4,5/1,8,7,6,5/1,2,3,4,5/1,8,7,6,
5/1,2,3,4,1/5,6,7,8,{2}5-1[8:1]/1-5[8:1],
{4}2h[8:1],2/7-3[8:1],7/2-8[8:1],2/6-1[6:1],
{24}6/1V75[4:1],2,{12}3,{24},,2,3,{6}4v1[6:1],{24}1,2,3,4,,,7,6,5,4h[4:1],,,{4}2-5[8:1],
2/6-1[8:1],6/4,{24}4/8,3/7,2/6,5/1,,,{6}2b/6b,
3b/7b,5b/1b,7b/3b,5b/1b,7b/3b,
{4}5h[6:1]/1h[6:1],2/7-3[8:1],7/2-8[8:1],2/6-1[6:1],
{24}6/1V75[4:1],2,{12}3,{24},,2,3,{6}4,{48}2,,,3,,,{16}4,5,6,7,8,1,
{4}6-1[8:1]/2-5[8:1],2<6[8:3],2,{8}3,2,
{16}1/5,8,7,6,1/5,4,3,2,{32}1h[4:1]/5h[4:1],,,,,,,,,2/6,3/7,4/8,{8}5h[4:1]/1h[4:1],
,,1/5,4,8/3,7,2/6,5,
{16}4,3,2,1,8,7,6,5,{32}1,2,3,4,5,6,7,8,1,2,3,4,5,6,7,8,
{1}1h[8:7],
{16}1,8,1,8,1,8,1,8,1q4[2:1],8,1,8,{4}1h[2:1],
{24},,,,,,,,,5,6,7,{4}8h[2:1],1,
{8}2<8[8:1],3,4,5>3[8:1],6,7,8,1,
2-6[8:1],7-4[8:1],2,7qq1[4:1],,2,,,2<8[8:1],
3,4,5<8[8:1],,6h[8:3],,,2-6[8:1],
7-4[8:1],2,7qq1[4:1],,2,,,2<8[8:1],
3,4,5>3[8:1],6,7,8,1,
2,2,8,8,2,2,1,1h[1:1],
{4}2h[8:1],4h[8:1],6h[8:1],8h[8:1],
{16}2,1,2,1,3,8,3,8,4,7,4,7,5,6,7,8,
1/5,2/6,3/7,8/4,{4}1b/5b,{2}3b/7b,
E
