&title=やる気が出ない歌
&artist=えいぷ (feat. 初音ミク & 重音テト)
&first=0
&des=雙木 きみの
&clock_count=4
&lv_5=14
&inote_5=(205)
{1},,
{8},,,,,B6/E6/B4/E4,,,
{8}8xh[4:1]/1x,2,3,,8h[4:1]/2,3,4,,
{8}8h[8:1],3,4h[8:1],7,6h[8:1],3,2h[8:1],8,
{8}1h[4:1]/8,7,6,,1h[4:1]/7,6,5,,
{8}1h[8:1],6,5h[8:1],2,3h[8:1],,7h[8:1],,
{8}5h[4:1]/4,3,2,,5h[4:1]/3,2,1,,
{8}5h[8:1],6,4h[8:1],3,8h[8:1],6,1h[8:1],3,
{8}4b-8b[8:1],2-6[8:1],4,2,,7h[8:9]/5b,,1,
{8},E3,B3,B4,E5,,C,,
{8}7b<4[16:1]/8b,,7/3,,8v3[16:1]/7,,8/4,,
{8}7<4[16:1]/8,,7/4,,7/1,4,8/2,5,
{8}1v6[16:1]/3,,1/5,,2>5[16:1]/1,,2/6,,
{8}1v6[16:1]/2,,1/6,,7/5,4/6,{16}3x,5x,{8}1x,
{8}8/6-3[16:1],,6/5,,7-2[16:1]/4,,7/1,,
{8}6-3[16:1]/2,,6/3,,4/2,5/3,{16}7-4[16:1],8,7,8,
{8}7,1x,{16}2>5[16:1],1,2,1,{8}2,8x,{16}6-4[16:1],1,6,1,
{8}6,3x,7/1,4x,5/3,1h[4:1]/6xh[8:1],,,
{8}5b-8b[8:1]/3b,,5/4-1b[8:1],,4/6,,6,7,
{8}8,,7,A2,6/B1,E3,5/C,A3,
{8}B4/2xV41[4:1],,1-5[8:1]/2,,6,,3,2,
{8}1,,2,B8,3/A7,C,4/E7,B5,
{8}A6/4xb>8b[4:1],,8<4[4:1],,4,,7,6,
{8}5h[8:1],,3,4x,5/2x,3x,4/6x,7x,
{8}1x/8h[8:1],2,2h[8:1]/7,6,6h[8:1]/3,4h[8:1],5h[8:1],2b,
{8},E2,E7,E4,8h[4:1],,4h[4:1],,
{8}7h[4:1],,{32}E4,B3,B2,E2,{8},5xbh[4:1]/4x,,{32}E4,B3,B2,E2,{8},
{8}7h[4:1],,{32}E4,B3,B2,E2,{8},5xb,,{32}5pp7[8:1]/E4,B3,B2,E2,{8},
{8}4bqq2b[8:1]/5b,,5bv6[8:1]/4b,,4bv3b[8:1]/5b,,7b/4b,,
{16}8,7,{8}6,5/3,7/2,5h[8:1],1,4h[8:1],8,
{8}6h[4:1],,{32}E4,B3,B2,E2,{8},8xbh[4:1]/4x,,{32}E4,B3,B2,E2,{8},
{8}6h[4:1]/4x,,{32}E4,B3,B2,E2,{8},7xb/2xb,,{32}E3/E7,B3/B6,B4/B5,E5,{8},
{8}4x/5x,6,7/2,3,7bv4[8:1]`4bv1b[8:1],,7b/4b,,
{8}5x/2x-5[8:1],2,8-4[8:1],8,4,3,2,1,
{64}8/5h[8:1],E1,B1,B2,E3f,,,,{8},5h[8:1],,5h[8:1],,5h[8:1],,
{8}5h[8:1],4,5h[8:1],4,5h[8:1],4,6h[8:1]/3b,2b,
{64}1xbh[8:1]/7,E7,B6,B5,E5f,,,,{8},1xbh[8:1],,1xbh[8:1],,1xbh[8:1],,
{8}1xbh[8:1],8,1xbh[8:1],8,1xbh[8:1],8,2bh[8:1]/5b,6b,
{64}7bh[4:1]/3,E3,B2,B1,E1f,,,,{8},1bh[4:1],7x,6bh[4:1],2x,3bh[4:1],6x,
{8}5bh[4:1],4x,4bh[4:1],3x,3bh[4:1],2x,2bh[4:1],1x,
{8}1bh[8:1],2bh[8:1],3bh[8:1],4bh[8:1],5bh[8:1],6bh[8:1],8b,E8/B8/B1/E2,
{8},E7,E3,E6,E4,,Ch[256:1]/B8/B2/B4/B6,,
{8}1b-5[16:1]/5b-8b[16:1],,1/5V31-7[16:5],,8,,6,5,
{8}8b-4[16:1]/4b,,4b-2[16:1]/6b-4b[16:1],,6b/4b,,,1v3b[8:1],
{8}1,,7v5b[8:1],7,,4,3,2,
{8}8b-4b[16:1]/2b,7b/1b,8b/6b,6b,1b-5b[16:1]/7b,2b/8b,1b/3b,3b,
{8}1bv4b[16:1]/5bp1[16:1],,1<7-5>3[16:5]/5,,4,,2,1,
{8}2b-4[16:1]/6b-8[16:1],,2b-7b[16:1]/6b-3b[16:1],,2b/6b,,,3>8[8:1],
{8}3,,7<4[8:1],7,,8,1>6b[4:1]/8,7,
{8}6b<3[4:1],6b,3b<8b[4:1],3b,8b>5[4:1],8b,5b,5b,
{8}7h[4:1],{16}4x,3x,{8}2x,6x/2,2h[4:1],{16}8x,7x,{8}6x,6h[8:3],
{8}D1f/E1,,B2/A2f,,E4/D4f/6-3b[16:1],,6b,,
{8}1-5b[8:1],,1,7-3b[8:1],,7,2-5b[8:1],2,
{8}8-4b[8:1],8,3,3,2xb/1xb,8xb/7xb,6xbh[4:1]/4xb,,
{8}2h[4:1],{16}5x,6x,{8}7x,3x/7,7h[4:1],{16}1x,2x,{8}3x,3h[8:3],
{8}D1f/E1,,B7/A7f,,E6/D6f/1-5[8:1],1,7-3[8:1],7,
{8}4b>2-6[4:1],,6b<8-4[4:1],8,,4,5<2b[4:1],6,
{8}2b>7[4:1],2b,7b>4b[4:1],7b,4b<1[4:1],4b,1b,1b,
{8}3xh[8:3],{16},8,{8},5,6xh[8:3],{16},1,{8},4,
{8}1x/7x,{16},2/4,{8},5/6,1bv7<6-4[1:1]`7bv1>2-4b[1:1],,,,
{8},,,,,,,,
{8}1xbh[4:15]/3b-6b[2:7],,,,,,,,
{8},,,,,,,,
{8},,,,,,,,
{8},,,,,,,,
{8}7bxp3[2:7]`4bxh[4:15],,,,,,,,
{8},,,,,,,,
{8},,,,,,,,
{8},,,,,,,,
{8}5-8[16:1]/4,,5/1,,4-1b[16:1]/5,,4/8,,
{8}5-8[16:1]/4,,5/1,,4-1b[16:1]/5,,4/7x-3[8:1],7x,
{8}8x-4b[8:1],,1x-5[8:1],,2x-6b[8:1],,3x,,
{16}4,3,{8}4,2h[8:1],8,7h[8:1],5,3h[8:1],6,
{8}4-1[16:1]/5,,4/8,,5-8b[16:1]/4,,5/1,,
{8}4w8[16:1]/5,,4,,5w1b[16:1]/4,,5,,
{8}2h[8:1]/8h[8:1],,7h[8:1]/3h[8:1],,6h[8:1]/4h[8:1],,5x,5x,
{8},6x/4x,8x,3x,7x/4x,,6x<2[8:1]`2v4b[8:1],,
{8}6x/2x,,,,,,,,
{8}3xb/5xb,3xhb[4:1]/5xhb[4:1],,,,,,,
{8}6xhb[4:1]/4xhb[4:1],,,,,,,,
{8}7xb/1xb,5xb/4xb,8xb/2xb,5xb/4xb,7xb-4[16:1]`2xb-5b[16:1],,7xb/2xb,,
{8}1xq5b[16:1]/8x,,1x/E7/B7/B6,,8xp4[16:1]/1x,,8x/E3/B2/B3,,
{8}1xv4[16:1]`8xv5b[16:1],,8x/1x,,3xqq1[16:1]`6xpp8b[16:1],,3x/6x,,
{8}1xw5[16:1],,{32}B1,C,B6/B5/B4,,{8},8xw4b[16:1],,{32}B8,C,B3/B4/B5,,{8},
{8}8x/1x,2x,3x/7x,6x,5x/4x,3x,6xV47-3[4:3]/2xv5v8b[4:3],7x,
{8}6xb/2xb,,,,,,,,
{32}E1,B1,B2,,{8},,,,,,,
{32}E7,B6,B5,,{8},,,,,,,
{32}B1,B2,E3,,{8},,,,,,,
{32}B6,B5,E5,,{8},,,Ch[2:1],E1,E2,E3,
{8}4x,,4,,4x/5,,4,,
{8}3x/6,,3,,3x/6,,3,,
{8}2x/7,,2,,2x/7,,2,,
{8}1b-5[16:1],8b-6b[16:1],1b,8b,1b-3[16:1],8b-4b[16:1],1b,8b,
{8}2xh[1:1],,,,,,,,
{8}5-1[16:1],,1-3[16:1]*-7b[16:1],,,{16},6x,4x,6x,4x,6x,
{8}4b>1[8:1],,1q5[8:1],7,,6,6,4,
{8}8b-4[16:1],4b-7[16:1],3b,2b,1b-5-2[16:3],1b,5b,6b,
{8}7b-4[16:1],,7b-2[16:1]/2b-4b[16:1],,7b/2b<8-6>4[4:1],,4,3,
{8}1b-3b[16:1]*-7[16:1],,1bw5[16:1],,{32}1b,B1,C,B6/B5f/B4,{8},,1pp1b[4:1],
{8}1,,8qq8[4:1],8,,3,2>5[16:1],1,
{8}8-4[16:1]/2,7,8/1-5[16:1],2,1/7<4[16:1],8,7/1,2,
{16}3,4,3,4,3,4,2,5,2,5,2,5,2,5,3,6,
{16}7bx,8,1,2,3/8xb,4,5,6,{8}7<4[16:1]/3xb,7,1>4[16:1],1,
{8}8-4[16:1],,8,2-6[16:1],,2,1>5[8:1],5v3[8:1],
{8}8,7,6,5h[8:1],3b,1b/2b,6b/4b,,
{16}6,5,6,5,6,5,7,4,7,4,7,4,7,4,6,3,
{16}2bx,1,8,7,6/1xb,5,4,3,{8}2-6[16:1]/6xb,2,8-4b[16:1],8,
{8}3xbqq2b[8:1],,5x,7xbqq5b[8:1],,2xbv3b[8:1],2x,6x,
{32}5x,6x,7x,8x,1x,2x,3x,4x,D5,D6,D7,D8,D1,D2,D3,D4,E5,E6,E7,E8,E1,E2,E3,E4,B5,B6,B7,B8,B1,B2,B3,B4,
{8}Cf,,,,,,,,
{8},,,,{16}1,8,1,8,1,8,1,8,
{8}1xv4[16:1]/7xh[16:3],{16},1x,{8},6x,{8}5xv8[16:1]/4xh[16:3],{16},5x,{8},3x,
{8}7xb/2xb,{16},4xb/5xb,{8},8xb-5[16:1]`1xb-4b[16:1],1xb/8xb,,D1/A8/A1/D8/E1/D2/A7/E8/B8/B1/E2/A2/B7/Cf/B2/D7/E7/B6/B3/E3/D3/A6/E6/B5/B4/E4/A3,,
{8},,,,,,,,
