&title=コントロールできない感情という変数
&artist=早瀬ユウカ(CV:春花らん)
&first=0.75
&des=ホシノニャイン
&lv_5=13+
&inote_5=(145)
{4},,,,
{4},,,
{16},,,,1,8,1,8,2,7,2,7,
{16}3,6,3,6,4-1b[8:1],5,4,5,
{16}4b/6-1b[8:1],,,,6b,,,,2,2,8<5[8:1],1,
{16}1,,8,3,3-1[8:1],,2,,3/6-8[8:1],,7,,
{16}6,4,3,2,1-4b[8:1]/5-8b[8:1],,48,,
{16}1bV75b[8:1]/5bV31b[8:1],,,,1b/5b,,,,7,7,1>4[8:1],8,
{16}8,,1,7,7-5[8:1],,6,,2-4[8:1]/7,,3,,
{16}2,7x,6x,,5x-8b[8:1],,2,,
{16}5b/1-4b[8:1],,,,1b,,,,6,6,4>1[8:1],5,
{16}5,,4,7,7-4[8:1],,1,,2-5[8:1]/7,,8,,
{16}2,8x,7x,,6x<8b[8:1],,15,,
{16}2>4b[8:1]/6b,,,,2b,,,,3,3,5<8[8:1],4,
{16}4,,5,2,2-5[8:1],,3,,2/6-1[8:1],,7,,
{16}6,2x,3x-7[8:1],,5,,,Cf,,,
{16}6/8-4[8:1],,71,,8,2,,,3/5-1[8:1],,46,,5,7,,,
{16}28,,37,,46,,5,,7v5[8:1],7,,,3v1[8:1],3,,,
{16}8,7,6,,5x,,61,,,72,,,8<6[8:1]/3,,,,
{16}2,,3,,4,,38,,,27,,,1>3[8:1]/6,,,,
{16}7,,5,,4>2[8:1],5,,,6,,8,,1<7[8:1],1,,,
{8}1,6h[8:1],5h[8:1],4h[8:1],3h[8:1],2h[8:1],1h[8:2],,
{16}5,,15,,26,,37,,,B3/B7,,,26,,,,
{16}48,,37,,26,,15,,,B1/B5,,,
{8}2<7[8:1]/6,3,4,5>2[8:1],6,7-4[8:1],,
{16}7,,3,,,2<6v4[8:2],,,,,,,,,E1/B1/E2/E3/B3/E4/E5/B5/E6/E7/B7/E8,,,,,,6x,6x,
{16}6x,6x,6x,6x,6x,6x,6x,6x,6x,6x,6x,6x,
{16}6x,6x,6x,6x,6x,6x,6x,6x,6x,6x,6x,6x,6x,6x,6x,6x,6x,,
{8}1v4[8:1]/7v4[8:1],8,17,8p1[8:1],C,,
{8}E3,1q8[8:1],,1,6,5-8[8:1]/4v2[8:1],3,45,
{32},,A1,E1/E2,B8/B2,B7/B3,E7/E4,,
{4}1bx>5b[8:1]*q5[8:1],1b<5b[8:1]*p5[8:1],1bw5b[8:1],1b,
{8}1-4[8:1],1-6[8:1],1-5b[8:1],1,1-3[8:1]*-7[8:1],,1,,
{16}6,5,6,4,5,4,5,3,4,3,4,2,
{4}8bh[8:2],
{8}2,8-4[8:1]/1,7,1-5[8:1]/8,2,,
{16}6,,7,,8,,2,1,2>5[8:1],3,2,1,2h[8:1],,,,,,
{16}56,,E4/E8,47,,12,,,34,,E2/E6,25,,78,,,
{16}56,,,,6,5,6<1[8:1],7,6,5,6h[8:1],,,,,,
{8}4,3<4-1[8:1],,,5,6>5-8[8:1],,,2,1-5[8:1]/2-4[8:1],,
{4}1-7[8:1]/2-6[8:1],1-5[8:1]/2-4[8:1],12,
{8}B7,B3,,Ch[8:4],,,,
{8}2-6[8:1],8-4[8:1],2,8,1h[8:2],,6<2[8:1],2v4[8:1],6,
{8}3,1,78,6,5-8[8:1],,
{16}5,,1,,2,,3,4,3-8[8:1],5,3,4,3,,,,,,
{16}7h[16:5],,6,5,,3,,,2h[16:5],,3,4,,6,,,
{8}7h[8:2],,1pp2[16:3],1qq8[16:3],1,1,,,
{16}25,,16,,7,8,7-4[8:1],1,7,8,7,,E2,,E3,,E4,,,,
{8}5h[8:1],4h[8:1],8h[8:1],1h[8:1],7h[8:1],2h[8:1],6,
{16}2>5b[8:1]/5<8b[8:1],,,,2b/5b,,,,2,1,3,8,
{16}2h[8:1],,7,8,1-6[8:1],,45,,1,,3h[8:1],,
{16}4,5,6,,53,,6,,
{16}7<4b[8:1]/4>1b[8:1],,,,7b/4b,,,,7,8,6,1,
{16}7h[8:1],,2,1,8-3[8:1],,45,,8,,6h[8:1],,
{16}2,2,8,1,1,,34,,
{16}2-5b[8:1]/5-8b[8:1],,,,2b/5b,,,,7,4,6,3,
{16}5h[8:1],,2,3,4-1[8:1],,35,,4,,6h[8:1],,
{16}5,4,3,,28,,16,,
{16}7-4b[8:1]/4-1b[8:1],,,,7b/4b,,,,2,5,3,6,
{16}4h[8:1],,7,6,5-8[8:1],,46,,5,,2,,
{16}1b,1b,1bp5[8:1]*q5[8:1],1b,1b,1b,1b,,,,
{16}37,,6,5,6,5,6h[8:1],,C,,,,
{16}2,1,2,1,2,1,2h[8:1],,C,,,,
{8}37,46,5,
{16}12,B1/B2,,,56,B5/B6,,,27,B2/B7,,,
{8}18,3<6[8:1]/6-3[8:1],,36,,1s5[8:2]/8z4[8:2],18,,,,,
{8}6>4[8:1],4>2[8:1],2<8[8:1],8<6[8:1],,6-1[8:1],1-6[8:1],4-1[8:1],,4-6[8:1],7,4,,,
{8}3-8[8:1],,3-6[8:1],7-2[8:1],3>8[8:1],7<4[8:1],3-7[8:1],7,3,,,,,,
{8}4,5-8[8:1],4,
{16}5,,3,,2-6[8:1],2,,,2,,,,1q6[8:1],,
{16}78,,1,,,7,,,8,,18,,,24,,,
{8}3h[8:1],4h[8:1],3h[8:1],5h[8:1],3h[8:1],
{16}6h[16:3],,1,1,,,1h[16:5]/7,,,,,5,,,
{16}26,,3h[16:3]/7,,,C,,,
{16}84,,37,,6-1[8:1],5,,5,6,,2,,,34,,,
{16}75,,6,,3,5,3q8[16:3],4,3,,3,,,6,,,
{16}7h[8:3],,,,8,1,2-6[8:1],,35,,2,,8,1,2,3,4/8-4[8:1],,,,
{8}8,5,67,18,23,4,56,
{8}7<7[8:5],,,,,,,
{8}4-1[8:1],,4/8-6[8:1],,8-4[8:1],2-6[8:1],8,2,5,,
{16}17,,8,8,8,8,8,,,B7/B6/B2/B3,,,
{16}35,,4,4,4,4,4,,,C,,,B2/B6,,B4/B8,,E2/E6,,
{8}8>2[8:1],2v3[8:1],3<5[8:1],E3,E3,,
{8}1-5[8:1],1,,7,1-5[8:1]/8V63[8:1],27,18,A3/A5,A4,B4,
{4}8bV64b[8:1]*p4[8:1],8bV24b[8:1]*q4[8:1],8bw4b[8:1],8b,
{8}8-5[8:1],8-3[8:1],8-4b[8:1],8,8<6[8:1]*>2[8:1],,8,,
{16}3,4,3,5,4,5,4,6,5,6,5,7,
{4}B1/B2/E2,
{8}7,8<5[8:1],2,8/4>1[8:1],3,,
{16}8,,7,,6,,3,4,2-6[8:1],5,3,4,2,,,,,,
{16}17,,8,B8,,12,,,35,,4,B4,,78,,,
{16}34,,,,6,5,7-3[8:1],4,6,5,7,,,,,,
{8}2,1>2-4[8:1],,,7,8<7-5[8:1],,,1,7-5[8:1]/8-4[8:1],,
{4}7-3[8:1]/8-2[8:1],7-5[8:1]/8-4[8:1],78,
{8}B2,B6,,Ch[8:4],,,,
{16}8,7,
{8}6-1[8:1],15,6,4h[8:2],,6<2[8:1],2v4[8:1],6,
{8}3-7[8:1],3,3,6,5-8[8:1],,
{16}5,,4,,3,,1,2,8-4[8:1],3,1,2,8,,,,,,
{16}6h[8:1],,4,4-8[8:1],,5,,,7h[8:1],,1x,1x-5[8:1],,6,,,
{8}8h[8:5],,E2,B6,E3,E5,,,
{16}5,,B1,,8,7,1-5[8:1],6,8,7,1,,E7,,E8,,E1,,,,
{8}1h[8:2],5h[8:1],,15,26,37,Cf,
{16}6,5,6,5,4,5,4,5,
{16}4,3,4,3,8,7,8,7,
{16}C,,3,4,3,4,3,2,3,2,3,4,
{16}3,,12,,78,,6,5,6,5,
{16}6,,8,7,8,7,
{16}8,,1,2,1,2,
{16}1,,4,3,4,3,
{16}4,2,5,3,6,4,7,5,
{8}8b,7b,6b,5bh[16:3],
{16}1,1,,37,,,26,,
{16}18,,1b,2b,3bh[8:1],,8b,7b,6bh[8:1],,2b,3b,4bh[8:1],,7b,6b,
{8}5h[8:1],2h[8:1],6h[8:1],4h[8:1],8h[8:1],3h[8:1],7h[8:1],1h[8:1],
{8}5h[8:1],,
{16}3,5,3,4,3,2,3,1,3,8,3,7,
{16}3h[8:5],,,,,,,,,,8,7,1,2,6,
{16}5h[16:3],,,3h[8:1],,4h[8:1],,5h[8:1],,6,7,81,2,3,45,6,7,
{16}8h[8:1],,3,3,5,5,4,4,6,6,5,5,7,7,
{16}5,6,5,6,4,7,3,8,2,1,2,1,3,8,4,7,5,6,
{16}3,4,3,4,3,4,2,5,3,4,1,6,3,4,8,7,
{16}5,6,5,6,5,6,4,7,5,6,3,8,5,6,2,1,
{16}2,8,2,7,2,,45,,1,8,7,6,8,1,2,3,
{16}5b,6,7,8h,
{16}4b,3,2,1h,
{16}6b,7,8,1h,
{16}3b,2,1,8q3[8:3],,,,,,,,,,,,,
{16}56,,76,,87,,1-4[8:1],8-5[8:1],2,7,1,8,,,,,,,
{16}12,,E1,E3,,38,,,56,,E5,E7,,47,,,
{16}26,,,,2,6,3p6[8:1],7,2,6,3,,,,,,
{8}7-5[8:1]*-3[8:1],4,,,2-4[8:1]*-6[8:1],5,,,27,1-5[8:1]/8-4[8:1],,
{4}1>4[8:1]/8<5[8:1],18,27,
{8}B6/B5/B1/B2,B7/B8/B4/B3,,Ch[8:4],,,,
{8}7v4[8:1],3v8[8:1],7,3,6<2v4[8:2],,6,3,3-8[8:1],
{8}7-4[8:1],3-6[8:1],7-2[8:1],3,7,,
{16}1x/2x,,23,,34,,5-8[8:1],4-1[8:1],6,3,5,4,,,,,,,
{16}56,,B4,6,,45,,,12,,B8,2,,18,,,
{8}7h[8:5],,B1,B3,B5,Ch[8:3],,,
{16}E8/B7/B8,,E4/B3/B4,,6,5,6q3[8:1],5,6,3,6,,4-8[8:1],,1,,4,,,,
{8}1-5[8:1],7-3[8:1],1-3[8:1],7-5[8:1],1,7,,
{16}C,,3,4,3p6[8:1],4,3,6,3,,5-1[8:1],,
{8}8,5,,2-6[8:1],8-4[8:1],2-4[8:1],
{8}8-6[8:1],2,8,C,
{16}1-4b[8:1]/5-8b[8:1],,,,1b/5b,Cf,,,1-5[8:1],8,2,7,
{16}1,,6,7,8-4[8:1],,1-5[8:1],,8,,1,,
{16}6,8,8,7,7,,18,,
{16}6-1b[8:1]/2-5b[8:1],,,,2b/6b,Cf,,,4-8[8:1],8,2,6,
{16}4,,7,6,5-1[8:1],,4-8[8:1],,5,,4,,
{16}7,5,6,5,,,15,,
{16}7-4b[8:1]/3-8b[8:1],,,,7b/3b,Cf,,,7-3[8:1],4,6,5,
{16}7,,2,1,8-3[8:1],,7-4[8:1],,8,,7,,
{16}1,1,8,8,,,37,,
{16}2-7b[8:1]/6-3b[8:1],,,,2b/6b,Cf,,,1-5[8:1],5,3,7,
{16}1,,8,7,6>3[8:1],,2<7[8:1],,6,,2,,
{16}6,6,,Cf,,,
{16}8,,1bx-5[16:1],,,7bx-3[16:1],,,4bx-1[16:1],,,8bx-5[16:1],,,2bx,,1xw5[16:1],,,,1b,,,,
E
