&title=journey
&artist=ARForest
&first=-0.6599997
&lv_4=1
&des_4=
&inote_4=
(200)
E
&lv_5= 14.6
&des_5=缘雪
&inote_5=
(200){4},,,,{1}C/1-3-5-7-2-4-6-8-2[4:27],
1h,
2h,
4h,
5h,
7h,
6h,
{4}6h[4:1],5h[4:1],4h[4:1],3h[4:1],
{8}2>6[4:3],,,1h[8:11],,,,,{4}E8,
E7,E6,E5,
{8}4/3>7[4:3],,,5h[8:11],,,,,{4}E6,
E7,E8,E1,
{8}7-3-5[4:3],,,1h[8:11],,,,,{4}E6,
E7,E8,E1,
{8}3h[8:3],,,4h[8:3],,,{4}5h[1:1],
E5,E3,E1,E7,
{8}6/4,,,6,{4}6h[4:1],4,
{2}3/5>1[2:1],1q7[2:1],
{8}8h[8:3],,,5,{4}5h[4:1],6,
{2}6/4<8[2:1],8>4[2:1],
{8}7,,,8,{4}8h[4:1],4,
{2}2/6V82[2:1],2V46[2:1],
{8}3h[8:3],,,8,{4}7,6/4,
{2}6h[16:13]/4<8[16:3],{16}1x,2,3,4,{8}5,{16}7,8,
{4}1b/Cf,{8}5,5,,,{4}1-6[4:3]*q4[2:3],
,,,,6h[4:7],
,,2h[4:3],
{24},,,,,,,,,,,,,,,,,,3,4,5,6,7,8,
{2}1h[2:1],{4}7p2[2:1],5h[4:3],
,,{2}1qq5[1:1],
{1}2h[4:3],
{24}1,2,3,4,5,6,{16}7,8,1,2,{8}3,4/8,{4}6b/2b,
{2}5/1v3[4:1],5-1[4:1],
{8}5h[4:3],,,B7,,,{4}B3,
{2}5/1v4[4:1],5v8[4:1],
{8}4h[4:3],,,B2,,,{4}B6,
5/1pp7[2:1],{8},,,,6,6,
7>5[4:3],,,6,,,{4}8,
{2}1v6[4:1],5v2[4:1],
8h[2:1],{8}3,5,{4}4,
{8}1,2,1v4[8:1],3,{2}Cf/1qq6[1:1],
{8},,,,,,,,8,
7,8v5[8:1],6,{2}Cf/8pp3[1:1],
{8},,,,,,,,2,
8,1z5[8:1]*s5[8:1],8,{2}Cf/1p3[1:1]*q7[24:23],
{8},,,,,,,,3,
4,5-8[8:1]*-2[8:1],4,{2}B5f/5q7[1:1]*p3[1:1],
{1},{32}1b/5h[4:7],
2,{16}3,,,,,{8}4,,,{4}7,
{8},1,,,{4}3,1,
{32}5b/1h[4:7],6,{16}7,,,,,{8}3,,,{4}5,
{8},7,,,{4}5,7,
{32}2b/6h[#2.099998],3,{16}4,,,,,{8}5,,,{4}8,
{8},2,,,{4}4,2,
{32}6b/2h[4:7],7,{16}8,,,,,{8}4,,,{4}6,
{8},8,,,{4}6,4,
{32}1b/6p4[2:3],2/7,{16}3/8,,,,,{8}1h,,,{4}1h,
{8},8h,,,{4}7h,6h,
{32}8b/3p1[2:3],2/7,{16}1/6,,,,,{8}4h,,,{4}4h,
{8},5h,,,{4}6h,7h,
{32}4,3,{16}2h[16:23],,,,,{8}5,,,{4}7,
{8},8,,,{4}6,5b/1h[4:1],
{32},2/8,7/3,6/4,{8}5,3,3h[4:1],7,7h[4:1],4,4h[4:1],
8,8h[8:3],{4}5h[4:1],{24},4bx/7x,6x/3bx,5x/2bx,1bx,8bx,7bx,6bx,5bx,4bx,3bx,2bx,
{8}1h[2:1],5,6,7,{4}8,{8}4,5,
6/4,7,{4}8/4,{8}1,2,{4}3/8,
{8}6h[2:1],5,4,3,{4}2,{8}5,4,
3/5,2,{4}1/5,{8}8,7,{4}6/1,
{8}8h[2:1],1,2,3,{4}4,{8}3,4,
5/3,6,{4}7/3,{8}7/3,6/2,{4}5/1,
{8}1h[2:1],8,7,6,{4}5,{8}6,5,
4/6,3,{4}2/6,{8}4,5,{4}6/4,
{1}5w1[2:3],
,4w8[2:3]*w8[2:3],
,4p7>3[4:7]/8p3<7[4:7],
{8},,,,,,,,,1bxh[8:5]/Cfh[8:5],
{4},,,{32}D5,
A5,D6,A6,A6,D7,A7,D8,A8,D1,A1,D2,A2,A2,D3,A3,{16}5bw1b[8:1],5b,5b,5b,{4}5b,
{8}A7/E8/D8/D7/E7/A6/A8/B7f,3,{4}3h[4:1],{8}4,5,6/3,2,
{4}7/1>4[8:1],1<6[8:1],1-5[8:1],{24}1b/5,6,7,8h[8:3],,,,,,{8}2,
2,3/4,7,7,4/6,1,
{4}2/8<5[8:1],8>3[8:1],8-4[8:1],{24}8b/4,3,2,1h[4:1],,,{8}5,
5,{4}5/2-5[8:1],{8}2,1,8,7,
2-5[8:1],7-4[8:1],2,7,1-5[8:1],8-4[8:1],1,8,
3,3,1,1,7,7,5,5,
2-5[8:1],2,1,8,7-4[8:1],7,8,1,
2,3,{4}4h[4:1]/1h[4:1],{8},5,6/2,7,
{4}4-1[8:1]/8-5[8:1],4-7[8:1]/8-3[8:1],8/4,{24}4b/8b,3/7,2/6,5h[4:1]/1V74[4:1],,,,,,,,,{8}5,
8,3/7,2/6,1/5,4/8,
{4}4-6[8:1]/8-2[8:1],8-6[8:1]/4-2[8:1],4/8,{24}1,2,3,4/8,7,6,
{8}5,{16}3,4,{8}3,7b/4b,{16}6,5,{8}6,2b/8b,{16}1,1,
{8}1,3,3-8[8:1],3,3/7,{24}7,6,5,{8}4,{24}1,2,3,
{8}4/7,{16}6,5,{8}6,{24}1<6[8:1],2,3,{8}4,1,3,3,
{16}7,5,6,4,5,3,4,2,{24}8b,7,6,5,4,3,2,1,8,7,6,5,
{8}4-8[8:1],3,{4}4,{8}2/6h[8:3],2,2,2,
{24}8/1-5[8:1],2,3,4,,,{4}1-4[8:1],6-8[8:1]/1-3[8:1],1/6,
{8}4-2[8:1],5,{4}6,{8}4/5<8[8:1],3,2,1,
{4}2-6[8:1],1/2-5[8:1],1/2-4[8:1],{8}2,{24}8,7,6,
{8}5,2,{4}2/8,{8}5>2[8:1],6,7,8,
{24}1-5[8:1]/8-4[8:1],2/7,3/6,4/5,,,{4}1-3[8:1]/8-6[8:1],8/1,{8}7-4[8:1],7,
8,1,2-5[8:1],1,8,7,{4}6/4,
{8}8b/1b,7/5,6/4,6/4,1b/8b,2/4,3/5,3/5,
6h[8:1],5h[8:1],4h[8:1],3,3h[8:1],4h[8:1],5h[8:1],6,
{24}1b/8-6[8:1],2,{12}3,,{4}2/8-5[8:1],8-4[8:1]/3-1[8:1],8/3,
{8}5h[8:3],4,3,2,2h[8:3],3,4,5,
{4}6b/4-6[8:1],2b/4-2[8:1],{8}4b/7h[4:1],{24},,,,,,8b/7,1,2,
{8}3,{16}6,5,{8}6,2b/5b,{16}3,4,{8}3,7b/1b,{16}8,8,
8,8,{8}6,4/6-1[8:1],6,6/2,{24}2b,3,4,{8}5,{24}8b,7,6,
{8}5/2,{16}3,4,{8}3,{16}6,5,{8}6,8/1,{16}2,4,3,5,
4,6,5,7,{24}3b,4,5,6,7,8,1,2,3,{96}8b/4,,,7,,,{32}6,5,4bx-8b[8:1],3bx,2bx,1bx,8bx,7bx,6bx,5bx,
{1}Cf/4bxqq5b[2:3],
6pp5[8:5],
7V53>7[2:7]/3bV17<3b[2:7],
{4},,,,,,,,,,,,5h[4:3],
E7,E8,E1,
1h[4:3]/E2,E3,E4,E5,
{1}E6/1-5-1[2:1],
1-5-1[2:1]/7-3-7[2:1],
{4}C,E6/B6,{2}E4/B3,
{1}1>1[1:1],
1>1[4:7]*>1[4:7],
,E5,
E
