&title=星織ユメミライ
&artist=Ceui/PCゲーム「星織ユメミライ Perfect Edition」OPテーマ
&first=0.48
&des=Ragna
&wholebpm=174
&demo_seek=57.2
&demo_len=27.7
&des_5=Ragna
&lv_5=13
&inote_5=(174){8}
3,4qq5[32:11
],5,6,,6,,7h[4:1],
,8qq1[32:11
],1,2,,2,,3h[4:1],
,4qq5[32:11
],5,6,,6,,7h[4:1],
,8,1,2,3,4,5,6,
7h[8:3],,,1h[8:3],,,4h[8:3],,
,5h[8:3],,,7h[4:1],,8h[4:1],,
4h[4:1],,3h[8:1],7h[4:1],,5h[4:1],,1h[8:3],
,,4h[8:1],8h[4:1],,2h[8:1],{16}1<1[2:1],8<8[2:1],7<7[2:1],6>6[2:1],
{8}5b>5[2:1]/1b,,,,,,8-4[8:1],,
3h[8:3],,,5h[8:3],,,1V73[4:1],,
8h[2:1],,,,2-6[8:1],6pp3[8:3],,,
5h[2:1],,,,4^1[8:1],,,{16}7,7,
{8}8,6,5,4/7h[4:1],,1,8,7/2h[4:1],
,4,3,2/5h[4:1],,4,5,3b/6b^1[8:1],
3,3,3,38,3,37,3,36,
4h/5h,3h,2h,1h/8h,7h,6h,5h,4h,
3z7[2:1]/6h,,6,,6h,,6,,
8q1[2:1]/5h,,5,,5h,,5,,
2qq5[8:7]/6h,,6,,6h,,6,,
6h,,6,,7h/4h,6,2h/5h,3,
7V15[2:1]/4h,,4,,4h,,4,,
6pp3[2:1]/2h,,2,,2h,,2,,
4q7[2:1]/1h,,1,,1h,,1,,
1h[4:1]/8h[4:1],,,1-5[8:1]/8-4[8:1],,18,,{16}3,6,
{8}1b,,7,8,5,4,6-3[8:1],3V16[4:1],
,,4,4,,5^8[8:1],1,5,
2h[4:1],,1,3V58[4:1]/8-5[8:1],,3/8V26[4:1],,6pp4[16:10],
,,5,,6,,7,,
8^5[8:1]/5,,3,,1^4[8:1]/4,,6,,
8q1[16:5]/5,,3,3,,,4-8[8:1],8>7[16:7]*<1[16:7],
,,,,,,,8-6[8:1],
2-4[8:1],8,2,5v2[8:1]*v8[8:1],,5b,,,
1h[2:1],,,,4,3,5,4qq1[8:3],
,7,7,,,,8,2,
7pp4[8:3],,4,4,,3,2,1h[2:1],
,6,7,8V24[8:1]*V64[8:1],,8b,,,
3,4,2,1h[4:1]/5,,8,2,3h[4:1]/7,
,5,4,36,,8,1,7,
2^7[8:1],,6,6qq3[8:3],8,,1,,
2,,1-5[8:1],,6-1[8:1],,3,,
84,7,6,15,2,3,8b/4b,,
,,,2v5[8:1],1v6[8:1],2,1,4-1[8:1]*p8[8:1],
,4,,7v4[8:1],8v3[8:1],7,8,5pp1[8:3],
,4,4,,,,2pp5[8:3]/8,,
25,6,7,8V64[4:1],,8/4V28[8:1],,8,
,4^7[8:1],7>4[24:5],4b,,,,6,
7h[4:1]/5,,3,2h[4:1]/4,,8-4[8:1]*v5[8:1],,8,
,6^3[8:1],3>6[24:5],6,,,,3,
1h[4:1]/5,,6,8h[4:1]/4,,1qq1[4:1],5,1b^4[8:1],
,,,6v1[8:1],5v2[8:1],6,5,8p4[8:1]*-5[8:1],
,8,,3v8[8:1],4v7[8:1],3,4,1pp5[8:3],
,8,8,,,,6pp1[8:3]/4,,
61,2,3,4-2[8:1]*^2[8:1],,4-6[8:1]*^6[8:1],,4-1[8:1]*^1[8:1],
,4-7[8:1]*^7[8:1],,4q8[8:1]*p8[8:1],,4b,,17,
17,,64,6v1[8:1]/4v1[8:1],,64,,8pp6[32:11]/2,
,83,4,5-1[8:1]*v2[8:1],,5b,,,
83,7,16,2,38,7,16,2,
34,5,64,7-3[8:1],,78,,24,
,4bz8[32:11]/5,4/5bs1[32:7],,,,,,
2/7^2[8:1],,,3h[8:3],,,4V26[4:1],,
2h[2:1],,,,5-1[8:1],1pp6[8:3],,,
4h[2:1],,,,5^8[8:1],,,{16}3,3,{8}
1,2,4,1h[4:1]/5,,8,2,7h[4:1]/3,
,4,6,3h[4:1]/5,,8,2,1b-5[8:1]/7b,
7,7,7,74,7,73,7,72,
1h/8h,7h,6h,4h/5h,3h,2h,1b<1[8:25]/8h,2h/7b>7[1:3],
{1},,,{16},,,,,,26,35,4,
