&title=月虹蝶
&artist=Aiobahn feat. KOTOKO
&first=0
&des=DawnX
&lv_5=13
&inote_5=(125)
{1},
{8}
1,2,3,4,,6,5,4,,2,1,8,,7,,,
8,7,6,5,,3,4,6,,7,,1,,2,,,
1,2,3,4,,6,5,4,,2,1,8,,7,6,5,2,3,4,5,6,7,8,1,1h[8:3]/8h[8:3],,,,
{16}
8,8,1,1,
{32}
8,7,6,5,1,2,3,4,
{8}
7,8-4[8:1],1,2>5[8:1],,6-1[8:1],7,8-4[8:1],,3<6[8:1],2,1s5[16:3],,8,,,
8,7-2[8:1],6,5<8[8:1],,3-7[8:1],2,1-5[8:1],,8>3[8:1],,7s3[16:3],,4,,,
7,6-2[8:1],5,4>1[8:1],,8-5[8:1],7,6-1[8:1],,4<7[8:1],3,2-5[8:1],,
1,8-4[8:1],7,6-2[8:1],5,3-7[8:1],4,5-1[8:1],6,8,8<4[4:1],,4>8[4:1],,8<4[4:1],,4,,,
2-4[8:1],,12,,7-5[8:1],,87,,2-4[8:1],,12,,7-5[8:1],8,17,2,
3-1[8:1],,43,,6-8[8:1],,56,,3-1[8:1],,43,,6-8[8:1],5,46,3,
2-4[8:1],,12,,7-5[8:1],,87,,2-4[8:1],,12,,7-5[8:1],8,17,2,
3-1[8:1],,43,,6-8[8:1],,56,,3-1[8:1],,43,5,6-8[8:1],5,46,3,
2>5[8:1],,8<5[8:1],8,1,1qq4[2:1],,5h[8:1],,
{16}
5,,,5,,,
{8}
6,7,1,2,
7<4[8:1],,1>4[8:1],1,8,8pp5[2:1],,4h[8:1],,
{16}
4,,,4,,,
{8}
3,2,7,6,
4>1[8:1],,6<1[8:1],6,5,5pp2[2:1],,1h[8:1],,
{16}
1,,,1,,,
{8}
8,7,6,5,
{16}
4h[16:3],,,3h[16:3],,,2h[8:1],,
5h[16:3],,,6h[16:3],,,7h[8:1],,
{1}
1<1[2:1]*>1[2:1],
{8}
7-5[8:1],,7,4-2[8:1],,1qq5[8:3],,,,,,4,3,2,1,8,7-2[8:1],,3,3-6[8:1],,5pp2[8:3]*qq8[8:3],,,,,,1,2,3,4,5,6-1[8:1],,2,2-5[8:1],,8-4[8:1],,7-3[8:1],,6-2[8:1],,5-1[8:1],,4-8[8:1],,4qq4[4:3]*pp4[4:3],,,,,,,,,
{2}
1-5[8:1],
{16}
7,7,3,3,
{32}
6,5,6,,4,,5,,
{8}
2-5[8:1],,12,8-4[8:1],,3-1[8:1]/8,,3/5-7[8:1],,5/8-4[8:1],,3-1[8:1]/8,,3/5-7[8:1],,58,1-5[8:1],,18,7-4[8:1],,3pp8[8:3]/7,,3h[8:3],,,,1,
{16}
2,2,6,6,
{32}
3,4,3,,5,,2,,
{8}
7-4[8:1],,78,1,2-5[8:1],1,28,7,8<5[8:1],,2/8>3[8:1],,6/8w4[8:1],,8,,
{16}
2>5[8:1],,,1,2,,8,,7<4[8:1],,,8,7,,1,,
{32}
2,,2,,6,,6,,3b,4,3,,5,,2,,
7,,7,,3,,3,,6b,5,6,,4,,7,,
{8}
3-8[8:1],,43,5-1[8:1],,2-4[8:1]/5,,2/8-6[8:1],,8/5-1[8:1],,2-4[8:1]/5,,2/8-6[8:1],,85,4-8[8:1],,45,6-1[8:1],,2qq5[8:3]/6,,2h[8:3],,,,4,
{16}
3,3,7,7,
{32}
2,1,2,,8,,2,,
{8}
6-1[8:1],,65,4,3-8[8:1],4,35,6,5<8[8:1],,3/5>2[8:1],,7/5w1[8:1],,5,,
{16}
3>8[8:1],,,4,3,,5,,6<1[8:1],,,5,6,,4,,
{32}
3,,3,,7,,7,,2,1,2,,8,,3,,
6,,6,,2,,2,,7,8,7,,1,,6,,
{8}
3,4-8[8:1],5,6<1[8:1],,2-5[8:1],3,4-8[8:1],,7>2[8:1],6,5s1[16:3],,4,,,
4,3-6[8:1],2,1>4[8:1],,7-3[8:1],6,5-1[8:1],,4<7[8:1],,3s7[16:3],,8,,,
3,2-6[8:1],1,8<5[8:1],,4-1[8:1],3,2-5[8:1],,8>3[8:1],7,6-1[8:1],,
5,4-8[8:1],3,2-6[8:1],1,7-3[8:1],8,1-5[8:1],2,4,4>8[4:1],,8<4[4:1],,4>8[4:1],,8,,,
6-8[8:1],,56,4,3-1[8:1],5,43,,6-8[8:1],,56,,3-1[8:1],4,53,6,
7-5[8:1],,87,1,2-4[8:1],8,12,,7-5[8:1],,87,,2-4[8:1],1,82,7,
6-8[8:1],,56,4,3-1[8:1],5,43,,6-8[8:1],,56,,3-1[8:1],4,53,6,
7-5[8:1],,87,1,2-4[8:1],8,12,,7-5[8:1],,87,1,2-4[8:1],1,82,7,
6<1[8:1],,4>1[8:1],4,5,5qq8[2:1],,1h[8:1],,
{16}
1h[1:0],,,1h[1:0],,,
{8}
2,3,45,6,
3>8[8:1],,5<8[8:1],5,4,4pp1[2:1],,8h[8:1],,
{16}
8h[1:0],,,8h[1:0],,,
{8}
7,6,35,2,
8<5[8:1],,2>5[8:1],2,1,1pp6[2:1],,5h[8:1],,
{16}
5h[1:0],,,5h[1:0],,,
{8}
4,3,25,1,
{16}
8h[16:3],,,7h[16:3],,,6h[8:1],,
1h[16:3],,,2h[16:3],,,3h[8:1],,
8h[2:1],,4,,,3,,,2,,
{24}
1,2,3,
{8}
46,
{24}
8,7,6,
{8}
3-1[8:1]/5,,3,8-6[8:1],,5qq1[8:3],,,,,,8,7,6,35,4,3-6[8:1],,7,7-2[8:1],,1pp6[8:3]*qq4[8:3],,,,,,5,6,7,28,1,2-5[8:1],,6,6-1[8:1],,4>8[4:1],,8<4[4:1],,4>8[4:1],,8<4[4:1],,4>8[4:1],,8qq8[4:3]*pp8[4:3],,,,,,,,,
5w1[31.25#32:1],,,,
{32}
3,,3,,7,,7,,1,8,1,,6,,4,,
{8}
5b,,34,2-5[8:1]/5,,2/7-4[8:1],,8-3[8:1]/7,,6-1[8:1]/8,,4-8[8:1]/6,,5-1[8:1]/4,,35,
2>5[8:1],,12,8-4[8:1],,8p5[8:3]*q3[8:3],,8,,,,4,
{16}
6,6,2,2,
{32}
7,8,7,,1,,6,,
{8}
2>5[8:1],,28,7,6<1[8:1],1,26,3,
4pp6[8:1],,2/4qq2[8:1],,4w8[8:1]/6,,4,,
{16}
7<4[8:1],,,8,7,,1,,2>5[8:1],,,1,2,,8,,
{32}
7,,7,,3,,3,,6b,5,6,,4,,7,,
2,,2,,6,,6,,3b,4,3,,5,,2,,
{8}
7<4[8:1],,37,1-6[8:1],,1-4[8:1]/3,,1qq7[8:1]/7,,1pp3[8:1]/3,,1w5[8:1]/7,,1,,
78,1/6-1[8:1],,26,3-7[8:1],,3/5pp1[8:3],,45,,,,2,
{16}
3,3,7,7,
{32}
2,1,2,,8,,3,,
{8}
7-4[8:1],,17,2,3-8[8:1],4,35,6,
7-3[8:1],,1-5[8:1]/7,,1/8w4[8:1],,8,,
{16}
2>5[8:1],,,1,2,,8,,6<1[8:1],,,5,6,,4,,
3,3,1,1,
{32}
2b,8,2,,5,,1,,
{16}
6,6,8,8,
{32}
7b,1,7,,4,,8,,
{1}
1b,
